» » Goutham Nanda (2017) Telugu - 720p - WEB-HD - AVC - AAC-TMV

Goutham Nanda (2017) Telugu - 720p - WEB-HD - AVC - AAC-TMV

Goutham Nanda (2017) Telugu - 720p - WEB-HD - AVC - AAC-TMV






General
Format                      : MPEG-4
Format profile              : Base Media / Version 2
Codec ID                    : mp42 (isom/iso2/avc1/mp41)
File size                   : 2.08 GiB
Duration                    : 2 h 30 min
Overall bit rate mode       : Variable
Overall bit rate            : 1 977 kb/s
Encoded date                : UTC 2017-10-01 12:19:55
Tagged date                 : UTC 2017-10-01 12:19:55
Writing application         : HandBrake 1.0.7 2017040900

Video
ID                          : 1
Format                      : AVC
Format/Info                 : Advanced Video Codec
Format profile              : Main@L4
Format settings, CABAC      : Yes
Format settings, RefFrames  : 4 frames
Codec ID                    : avc1
Codec ID/Info               : Advanced Video Coding
Duration                    : 2 h 30 min
Bit rate                    : 1 810 kb/s
Width                       : 1 280 pixels
Height                      : 720 pixels
Display aspect ratio        : 16:9
Frame rate mode             : Constant
Frame rate                  : 30.000 FPS
Color space                 : YUV
Chroma subsampling          : 4:2:0
Bit depth                   : 8 bits
Scan type                   : Progressive
Bits/(Pixel*Frame)          : 0.065
Stream size                 : 1.91 GiB (92%)
Writing library             : x264 core 148 r2708 86b7198
Encoding settings           : cabac=1 / ref=2 / deblock=1:0:0 / analyse=0x1:0x111 / me=hex / subme=6 / psy=1 / psy_rd=1.00:0.00 / mixed_ref=1 / me_range=16 / chroma_me=1 / trellis=1 / 8x8dct=0 / cqm=0 / deadzone=21,11 / fast_pskip=1 / chroma_qp_offset=-2 / threads=12 / lookahead_threads=2 / sliced_threads=0 / nr=0 / decimate=1 / interlaced=0 / bluray_compat=0 / constrained_intra=0 / bframes=3 / b_pyramid=2 / b_adapt=1 / b_bias=0 / direct=1 / weightb=1 / open_gop=0 / weightp=1 / keyint=300 / keyint_min=30 / scenecut=40 / intra_refresh=0 / rc_lookahead=30 / rc=2pass / mbtree=1 / bitrate=1810 / ratetol=1.0 / qcomp=0.60 / qpmin=0 / qpmax=69 / qpstep=4 / cplxblur=20.0 / qblur=0.5 / vbv_maxrate=20000 / vbv_bufsize=25000 / nal_hrd=none / filler=0 / ip_ratio=1.40 / aq=1:1.00
Encoded date                : UTC 2017-10-01 12:19:55
Tagged date                 : UTC 2017-10-01 12:19:55
Color range                 : Limited
Color primaries             : BT.709
Transfer characteristics    : BT.709
Matrix coefficients         : BT.709

Audio
ID                          : 2
Format                      : AAC
Format/Info                 : Advanced Audio Codec
Format profile              : LC
Codec ID                    : 40
Duration                    : 2 h 30 min
Bit rate mode               : Variable
Bit rate                    : 160 kb/s
Channel(s)                  : 2 channels
Channel positions           : Front: L R
Sampling rate               : 48.0 kHz
Frame rate                  : 46.875 FPS (1024 SPF)
Compression mode            : Lossy
Stream size                 : 173 MiB (8%)
Title                       : Stereo / Stereo
Language                    : English
Default                     : Yes
Alternate group             : 1
Encoded date                : UTC 2017-10-01 12:19:55
Tagged date                 : UTC 2017-10-01 12:19:55


Goutham Nanda (2017) Telugu - 720p - WEB-HD - AVC - AAC-TMVGoutham Nanda (2017) Telugu - 720p - WEB-HD - AVC - AAC-TMVGoutham Nanda (2017) Telugu - 720p - WEB-HD - AVC - AAC-TMVGoutham Nanda (2017) Telugu - 720p - WEB-HD - AVC - AAC-TMVGoutham Nanda (2017) Telugu - 720p - WEB-HD - AVC - AAC-TMV

SINGLE DIRECT FAST LINKS

http://www.heroupload.com/c59b7f5ede8e94fa/Goutham.Nanda.2017.Telugu.WEB-HD.720p.UNTOUCHED.AVC.AAC-TMV.mp4


http://filefloater.com/611/Goutham.Nanda.2017.Telugu.WEB-HD.720p.UNTOUCHED.AVC.AAC-TMV.mp4

700MB LINKS

http://www.heroupload.com/b5083510c90c617b/Goutham.Nanda.2017.Telugu.WEB-HD.720p.UNTOUCHED.AVC.AAC-TMV.part1.rar
http://www.heroupload.com/b3b3f8847942c9ba/Goutham.Nanda.2017.Telugu.WEB-HD.720p.UNTOUCHED.AVC.AAC-TMV.part2.rar
http://www.heroupload.com/b28ce1450e88a11c/Goutham.Nanda.2017.Telugu.WEB-HD.720p.UNTOUCHED.AVC.AAC-TMV.part3.rar
http://www.heroupload.com/891b817524df4b2e/Goutham.Nanda.2017.Telugu.WEB-HD.720p.UNTOUCHED.AVC.AAC-TMV.part4.rar



http://filefloater.com/612/Goutham.Nanda.2017.Telugu.WEB-HD.720p.UNTOUCHED.AVC.AAC-TMV.part1.rar
http://filefloater.com/613/Goutham.Nanda.2017.Telugu.WEB-HD.720p.UNTOUCHED.AVC.AAC-TMV.part2.rar
http://filefloater.com/614/Goutham.Nanda.2017.Telugu.WEB-HD.720p.UNTOUCHED.AVC.AAC-TMV.part3.rar
http://filefloater.com/615/Goutham.Nanda.2017.Telugu.WEB-HD.720p.UNTOUCHED.AVC.AAC-TMV.part4.rar



Comments:

Dear visitor, you went to the site as unregistered user
We encourage you to create an account or enter the site under your name

Add comment

Name:*
E-Mail:*
Text:
Bold Italic Underline Strike | Align left Center Align right | Insert smilies Insert link URLInsert protected URL Select color | Add Hidden Text Insert Quote Convert selected text from selection to Cyrillic (Russian) alphabet Insert spoiler
Enter the code: *

Create an account

Who's Online?

Module online =)

Advertising