» » Jai Lava Kusa (2017) Telugu - 1080p - UNTOUCHED - True WEB-HD - AVC- AAC - TMV

Jai Lava Kusa (2017) Telugu - 1080p - UNTOUCHED - True WEB-HD - AVC- AAC - TMV

Jai Lava Kusa (2017) Telugu - 1080p - UNTOUCHED - True WEB-HD - AVC- AAC - TMV





General
Format                      : MPEG-4
Format profile              : Base Media
Codec ID                    : isom (mp41)
File size                   : 7.40 GiB
Duration                    : 2 h 30 min
Overall bit rate mode       : Variable
Overall bit rate            : 7 028 kb/s
Encoded date                : UTC 2018-01-19 19:03:27
Tagged date                 : UTC 2018-01-19 19:03:27
Writing application         : BandiMp4Muxer 1.0

Video
ID                          : 1
Format                      : MPEG-4 Visual
Format profile              : Simple@L1
Format settings, BVOP       : Yes
Format settings, QPel       : No
Format settings, GMC        : No warppoints
Format settings, Matrix     : Default (H.263)
Codec ID                    : 20
Duration                    : 2 h 30 min
Bit rate mode               : Variable
Bit rate                    : 6 828 kb/s
Maximum bit rate            : 103 Mb/s
Width                       : 1 912 pixels
Height                      : 992 pixels
Display aspect ratio        : 1.927
Frame rate mode             : Variable
Frame rate                  : 13.388 FPS
Minimum frame rate          : 0.390 FPS
Maximum frame rate          : 30.030 FPS
Original frame rate         : 30.000 FPS
Color space                 : YUV
Bit depth                   : 8 bits
Scan type                   : Progressive
Compression mode            : Lossy
Bits/(Pixel*Frame)          : 0.269
Stream size                 : 7.19 GiB (97%)
Language                    : English
Encoded date                : UTC 2018-01-19 19:03:27
Tagged date                 : UTC 2018-01-19 19:03:27

Audio
ID                          : 2
Format                      : AAC
Format/Info                 : Advanced Audio Codec
Format profile              : LC
Codec ID                    : 40
Duration                    : 2 h 30 min
Bit rate mode               : Variable
Bit rate                    : 192 kb/s
Maximum bit rate            : 302 kb/s
Channel(s)                  : 2 channels
Channel positions           : Front: L R
Sampling rate               : 48.0 kHz
Frame rate                  : 46.875 FPS (1024 SPF)
Compression mode            : Lossy
Stream size                 : 210 MiB (3%)
Language                    : English
Encoded date                : UTC 2018-01-19 19:03:27
Tagged date                 : UTC 2018-01-19 19:03:27



Jai Lava Kusa (2017) Telugu - 1080p - UNTOUCHED - True WEB-HD - AVC- AAC - TMVJai Lava Kusa (2017) Telugu - 1080p - UNTOUCHED - True WEB-HD - AVC- AAC - TMVJai Lava Kusa (2017) Telugu - 1080p - UNTOUCHED - True WEB-HD - AVC- AAC - TMVJai Lava Kusa (2017) Telugu - 1080p - UNTOUCHED - True WEB-HD - AVC- AAC - TMVJai Lava Kusa (2017) Telugu - 1080p - UNTOUCHED - True WEB-HD - AVC- AAC - TMV





SINGLE DIRECT FAST LINKS
'
https://www.heroupload.com/856867eb40a1c5df/Jai.Lava.Kusa.2017.Telugu.WEB-HD.1080p.UNTOUCHED.AVC.AAC-TMV.mp4


1GB LINKS

https://www.heroupload.com/5f37d51a2352f261/Jai.Lava.Kusa.2017.Telugu.WEB-HD.1080p.UNTOUCHED.AVC.AAC-TMV.part1.rar
https://www.heroupload.com/ef942f91760662d4/Jai.Lava.Kusa.2017.Telugu.WEB-HD.1080p.UNTOUCHED.AVC.AAC-TMV.part2.rar
https://www.heroupload.com/14677dd52460574a/Jai.Lava.Kusa.2017.Telugu.WEB-HD.1080p.UNTOUCHED.AVC.AAC-TMV.part3.rar
https://www.heroupload.com/61c16814defc434e/Jai.Lava.Kusa.2017.Telugu.WEB-HD.1080p.UNTOUCHED.AVC.AAC-TMV.part4.rar
https://www.heroupload.com/30542bad0b7065fe/Jai.Lava.Kusa.2017.Telugu.WEB-HD.1080p.UNTOUCHED.AVC.AAC-TMV.part5.rar
https://www.heroupload.com/77e0751ef831cf51/Jai.Lava.Kusa.2017.Telugu.WEB-HD.1080p.UNTOUCHED.AVC.AAC-TMV.part6.rar
https://www.heroupload.com/4d84c46fb0be472f/Jai.Lava.Kusa.2017.Telugu.WEB-HD.1080p.UNTOUCHED.AVC.AAC-TMV.part7.rar
https://www.heroupload.com/77a0c1b8574d21a9/Jai.Lava.Kusa.2017.Telugu.WEB-HD.1080p.UNTOUCHED.AVC.AAC-TMV.part8.rar



http://filefloater.com/4gb/Jai.Lava.Kusa.2017.Telugu.WEB-HD.1080p.UNTOUCHED.AVC.AAC-TMV.part1.rar
http://filefloater.com/4gc/Jai.Lava.Kusa.2017.Telugu.WEB-HD.1080p.UNTOUCHED.AVC.AAC-TMV.part2.rar
http://filefloater.com/4gd/Jai.Lava.Kusa.2017.Telugu.WEB-HD.1080p.UNTOUCHED.AVC.AAC-TMV.part3.rar
http://filefloater.com/4ge/Jai.Lava.Kusa.2017.Telugu.WEB-HD.1080p.UNTOUCHED.AVC.AAC-TMV.part4.rar
http://filefloater.com/4gf/Jai.Lava.Kusa.2017.Telugu.WEB-HD.1080p.UNTOUCHED.AVC.AAC-TMV.part5.rar
http://filefloater.com/4gg/Jai.Lava.Kusa.2017.Telugu.WEB-HD.1080p.UNTOUCHED.AVC.AAC-TMV.part6.rar
http://filefloater.com/4gh/Jai.Lava.Kusa.2017.Telugu.WEB-HD.1080p.UNTOUCHED.AVC.AAC-TMV.part7.rar
http://filefloater.com/4gi/Jai.Lava.Kusa.2017.Telugu.WEB-HD.1080p.UNTOUCHED.AVC.AAC-TMV.part8.rar




Tags: Jai

Comments:

Dear visitor, you went to the site as unregistered user
We encourage you to create an account or enter the site under your name

Add comment

Name:*
E-Mail:*
Text:
Bold Italic Underline Strike | Align left Center Align right | Insert smilies Insert link URLInsert protected URL Select color | Add Hidden Text Insert Quote Convert selected text from selection to Cyrillic (Russian) alphabet Insert spoiler
Enter the code: *

Create an account

Advertising