» » Jai Lava Kusa (2017) Telugu - 720p - UNTOUCHED - True WEB-HD - AVC- AAC - TMV

Jai Lava Kusa (2017) Telugu - 720p - UNTOUCHED - True WEB-HD - AVC- AAC - TMV

Jai Lava Kusa (2017) Telugu - 720p - UNTOUCHED - True WEB-HD - AVC- AAC - TMV






General
Format                      : MPEG-4
Format profile              : Base Media
Codec ID                    : isom (isom/iso2/avc1/mp41)
File size                   : 5.23 GiB
Duration                    : 2 h 29 min
Overall bit rate            : 4 994 kb/s
Writing application         : Lavf56.36.100

Video
ID                          : 1
Format                      : AVC
Format/Info                 : Advanced Video Codec
Format profile              : Main@L3.1
Format settings, CABAC      : Yes
Format settings, RefFrames  : 3 frames
Codec ID                    : avc1
Codec ID/Info               : Advanced Video Coding
Duration                    : 2 h 29 min
Bit rate                    : 4 848 kb/s
Width                       : 1 280 pixels
Height                      : 720 pixels
Display aspect ratio        : 16:9
Frame rate mode             : Variable
Frame rate                  : 25.000 FPS
Minimum frame rate          : 6.250 FPS
Maximum frame rate          : 25.000 FPS
Color space                 : YUV
Chroma subsampling          : 4:2:0
Bit depth                   : 8 bits
Scan type                   : Progressive
Bits/(Pixel*Frame)          : 0.210
Stream size                 : 5.07 GiB (97%)

Audio
ID                          : 2
Format                      : AAC
Format/Info                 : Advanced Audio Codec
Format profile              : LC
Codec ID                    : 40
Duration                    : 2 h 29 min
Bit rate mode               : Constant
Bit rate                    : 132 kb/s
Channel(s)                  : 2 channels
Channel positions           : Front: L R
Sampling rate               : 96.0 kHz
Frame rate                  : 93.750 FPS (1024 SPF)
Compression mode            : Lossy
Stream size                 : 139 MiB (3%)
Language                    : unk
Default                     : Yes
Alternate group             : 1


Jai Lava Kusa (2017) Telugu - 720p - UNTOUCHED - True WEB-HD - AVC- AAC - TMVJai Lava Kusa (2017) Telugu - 720p - UNTOUCHED - True WEB-HD - AVC- AAC - TMVJai Lava Kusa (2017) Telugu - 720p - UNTOUCHED - True WEB-HD - AVC- AAC - TMVJai Lava Kusa (2017) Telugu - 720p - UNTOUCHED - True WEB-HD - AVC- AAC - TMVJai Lava Kusa (2017) Telugu - 720p - UNTOUCHED - True WEB-HD - AVC- AAC - TMVJai Lava Kusa (2017) Telugu - 720p - UNTOUCHED - True WEB-HD - AVC- AAC - TMVJai Lava Kusa (2017) Telugu - 720p - UNTOUCHED - True WEB-HD - AVC- AAC - TMVJai Lava Kusa (2017) Telugu - 720p - UNTOUCHED - True WEB-HD - AVC- AAC - TMV


SINGLE DIRECT FAST LINKS

https://www.heroupload.com/102a2a7b37f055fc/Jai.Lava.Kusa.2017.Telugu.WEB-HD.720p.UNTOUCHED.AVC.AAC-TMV.mp4


1GB LINKS

https://www.heroupload.com/a9786ef0bddcb942/Jai.Lava.Kusa.2017.Telugu.WEB-HD.720p.UNTOUCHED.AVC.AAC-TMV.part1.rar
https://www.heroupload.com/451a5c8e6a729532/Jai.Lava.Kusa.2017.Telugu.WEB-HD.720p.UNTOUCHED.AVC.AAC-TMV.part2.rar
https://www.heroupload.com/b1f7eb8d3c090f46/Jai.Lava.Kusa.2017.Telugu.WEB-HD.720p.UNTOUCHED.AVC.AAC-TMV.part3.rar
https://www.heroupload.com/36e1e3e900cbf6aa/Jai.Lava.Kusa.2017.Telugu.WEB-HD.720p.UNTOUCHED.AVC.AAC-TMV.part4.rar
https://www.heroupload.com/ff40577e2381caab/Jai.Lava.Kusa.2017.Telugu.WEB-HD.720p.UNTOUCHED.AVC.AAC-TMV.part5.rar
https://www.heroupload.com/2ff2a7ed6f971ba0/Jai.Lava.Kusa.2017.Telugu.WEB-HD.720p.UNTOUCHED.AVC.AAC-TMV.part6.rar



http://filefloater.com/4g5/Jai.Lava.Kusa.2017.Telugu.WEB-HD.720p.UNTOUCHED.AVC.AAC-TMV.part1.rar
http://filefloater.com/4g6/Jai.Lava.Kusa.2017.Telugu.WEB-HD.720p.UNTOUCHED.AVC.AAC-TMV.part2.rar
http://filefloater.com/4g7/Jai.Lava.Kusa.2017.Telugu.WEB-HD.720p.UNTOUCHED.AVC.AAC-TMV.part3.rar
http://filefloater.com/4g8/Jai.Lava.Kusa.2017.Telugu.WEB-HD.720p.UNTOUCHED.AVC.AAC-TMV.part4.rar
http://filefloater.com/4g9/Jai.Lava.Kusa.2017.Telugu.WEB-HD.720p.UNTOUCHED.AVC.AAC-TMV.part5.rar
http://filefloater.com/4ga/Jai.Lava.Kusa.2017.Telugu.WEB-HD.720p.UNTOUCHED.AVC.AAC-TMV.part6.rar


Tags: Jai

Comments:

Dear visitor, you went to the site as unregistered user
We encourage you to create an account or enter the site under your name

Add comment

Name:*
E-Mail:*
Text:
Bold Italic Underline Strike | Align left Center Align right | Insert smilies Insert link URLInsert protected URL Select color | Add Hidden Text Insert Quote Convert selected text from selection to Cyrillic (Russian) alphabet Insert spoiler
Enter the code: *

Create an account

Advertising