» » Project Z (2017) Telugu Line - 1080p - HDRip - x264 - ESub - TMV

Project Z (2017) Telugu Line - 1080p - HDRip - x264 - ESub - TMV

Project Z (2017) Telugu Line - 1080p - HDRip - x264 - ESub - TMV





General
Format                      : Matroska
Format version              : Version 4 / Version 2
File size                   : 3.66 GiB
Duration                    : 2 h 1 min
Overall bit rate mode       : Variable
Overall bit rate            : 4 298 kb/s
Encoded date                : UTC 2018-01-11 18:29:41
Writing application         : mkvmerge v7.1.0 ('Good Love') 32bit built on Jul 27 2014 12:59:18
Writing library             : libebml v1.3.0 + libmatroska v1.4.1

Video
ID                          : 1
Format                      : AVC
Format/Info                 : Advanced Video Codec
Format profile              : High@L4
Format settings, CABAC      : Yes
Format settings, RefFrames  : 3 frames
Codec ID                    : V_MPEG4/ISO/AVC
Duration                    : 2 h 1 min
Bit rate mode               : Constant
Bit rate                    : 4 250 kb/s
Width                       : 1 920 pixels
Height                      : 1 080 pixels
Display aspect ratio        : 16:9
Frame rate mode             : Constant
Frame rate                  : 29.970 (30000/1001) FPS
Color space                 : YUV
Chroma subsampling          : 4:2:0
Bit depth                   : 8 bits
Scan type                   : Progressive
Bits/(Pixel*Frame)          : 0.068
Stream size                 : 3.59 GiB (98%)
Language                    : Tamil
Default                     : Yes
Forced                      : No

Audio
ID                          : 2
Format                      : MPEG Audio
Format version              : Version 1
Format profile              : Layer 3
Mode                        : Joint stereo
Mode extension              : MS Stereo
Codec ID                    : A_MPEG/L3
Codec ID/Hint               : MP3
Duration                    : 2 h 1 min
Bit rate mode               : Variable
Bit rate                    : 85.3 kb/s
Nominal bit rate            : 96.0 kb/s
Channel(s)                  : 2 channels
Sampling rate               : 44.1 kHz
Frame rate                  : 38.281 FPS (1152 SPF)
Compression mode            : Lossy
Delay relative to video     : -32 ms
Stream size                 : 74.5 MiB (2%)
Writing library             : LAME3.99r
Encoding settings           : -m j -V 4 -q 3 -lowpass 15.1 --abr 96
Language                    : Telugu
Default                     : Yes
Forced                      : No

Text
ID                          : 3
Format                      : UTF-8
Codec ID                    : S_TEXT/UTF8
Codec ID/Info               : UTF-8 Plain Text
Duration                    : 1 h 55 min
Bit rate                    : 64 b/s
Count of elements           : 1695
Stream size                 : 54.5 KiB (0%)
Language                    : English
Default                     : Yes
Forced                      : No




Project Z (2017) Telugu Line - 1080p - HDRip - x264 - ESub - TMVProject Z (2017) Telugu Line - 1080p - HDRip - x264 - ESub - TMVProject Z (2017) Telugu Line - 1080p - HDRip - x264 - ESub - TMVProject Z (2017) Telugu Line - 1080p - HDRip - x264 - ESub - TMVProject Z (2017) Telugu Line - 1080p - HDRip - x264 - ESub - TMV

SINGLE DIRECT FAST LINKS
https://www.heroupload.com/4f11901ee0a32a63/Project.Z.2017.Telugu.WEB-HD.1080p.Line.Audio.ESub-TMV.mkv


http://filefloater.com/4cs/Project.Z.2017.Telugu.WEB-HD.1080p.Line.Audio.ESub-TMV.mkv

1GB LINKS

https://www.heroupload.com/dba367f8c8633d82/Project.Z.2017.Telugu.WEB-HD.1080p.Line.Audio.ESub-TMV.part1.rar
https://www.heroupload.com/c18dafe6b90600ba/Project.Z.2017.Telugu.WEB-HD.1080p.Line.Audio.ESub-TMV.part2.rar
https://www.heroupload.com/fcbc45fda17c7ea8/Project.Z.2017.Telugu.WEB-HD.1080p.Line.Audio.ESub-TMV.part3.rar
https://www.heroupload.com/8f8d6dd87517f7a3/Project.Z.2017.Telugu.WEB-HD.1080p.Line.Audio.ESub-TMV.part4.rar



http://filefloater.com/4ct/Project.Z.2017.Telugu.WEB-HD.1080p.Line.Audio.ESub-TMV.part1.rar
http://filefloater.com/4cu/Project.Z.2017.Telugu.WEB-HD.1080p.Line.Audio.ESub-TMV.part2.rar
http://filefloater.com/4cv/Project.Z.2017.Telugu.WEB-HD.1080p.Line.Audio.ESub-TMV.part3.rar
http://filefloater.com/4cw/Project.Z.2017.Telugu.WEB-HD.1080p.Line.Audio.ESub-TMV.part4.rar






Tags: Project

Comments:

Dear visitor, you went to the site as unregistered user
We encourage you to create an account or enter the site under your name

Add comment

Name:*
E-Mail:*
Text:
Bold Italic Underline Strike | Align left Center Align right | Insert smilies Insert link URLInsert protected URL Select color | Add Hidden Text Insert Quote Convert selected text from selection to Cyrillic (Russian) alphabet Insert spoiler
Enter the code: *

Create an account

Partner Site

Advertising