» » Agnyaathavaasi (2018) Telugu - 1080p - DVDscr - x264 - MP3-TMV

Agnyaathavaasi (2018) Telugu - 1080p - DVDscr - x264 - MP3-TMV

Agnyaathavaasi (2018) Telugu - 1080p - DVDscr - x264 - MP3-TMV





General
Format                      : Matroska
Format version              : Version 4 / Version 2
File size                   : 2.38 GiB
Duration                    : 2 h 36 min
Overall bit rate mode       : Variable
Overall bit rate            : 2 178 kb/s
Encoded date                : UTC 2018-01-10 11:29:46
Writing application         : mkvmerge v7.1.0 ('Good Love') 32bit built on Jul 27 2014 12:59:18
Writing library             : libebml v1.3.0 + libmatroska v1.4.1

Video
ID                          : 1
Format                      : AVC
Format/Info                 : Advanced Video Codec
Format profile              : High@L4
Format settings, CABAC      : Yes
Format settings, RefFrames  : 4 frames
Codec ID                    : V_MPEG4/ISO/AVC
Duration                    : 2 h 36 min
Bit rate                    : 2 078 kb/s
Width                       : 1 920 pixels
Height                      : 816 pixels
Display aspect ratio        : 2.35:1
Frame rate mode             : Constant
Frame rate                  : 24.000 FPS
Color space                 : YUV
Chroma subsampling          : 4:2:0
Bit depth                   : 8 bits
Scan type                   : Progressive
Bits/(Pixel*Frame)          : 0.055
Stream size                 : 2.28 GiB (95%)
Writing library             : x264 core 152 r2851 ba24899
Encoding settings           : cabac=1 / ref=3 / deblock=1:0:0 / analyse=0x3:0x113 / me=hex / subme=7 / psy=1 / psy_rd=1.00:0.00 / mixed_ref=1 / me_range=16 / chroma_me=1 / trellis=1 / 8x8dct=1 / cqm=0 / deadzone=21,11 / fast_pskip=1 / chroma_qp_offset=-2 / threads=25 / lookahead_threads=4 / sliced_threads=0 / nr=0 / decimate=1 / interlaced=0 / bluray_compat=0 / constrained_intra=0 / bframes=3 / b_pyramid=2 / b_adapt=1 / b_bias=0 / direct=1 / weightb=1 / open_gop=0 / weightp=2 / keyint=240 / keyint_min=24 / scenecut=40 / intra_refresh=0 / rc_lookahead=40 / rc=2pass / mbtree=1 / bitrate=2078 / ratetol=1.0 / qcomp=0.60 / qpmin=0 / qpmax=69 / qpstep=4 / cplxblur=20.0 / qblur=0.5 / ip_ratio=1.40 / aq=1:1.00
Language                    : Telugu
Default                     : Yes
Forced                      : No

Audio
ID                          : 2
Format                      : MPEG Audio
Format version              : Version 1
Format profile              : Layer 3
Mode                        : Joint stereo
Mode extension              : MS Stereo
Codec ID                    : A_MPEG/L3
Codec ID/Hint               : MP3
Duration                    : 2 h 36 min
Bit rate mode               : Variable
Bit rate                    : 96.0 kb/s
Channel(s)                  : 2 channels
Sampling rate               : 48.0 kHz
Frame rate                  : 41.667 FPS (1152 SPF)
Compression mode            : Lossy
Stream size                 : 109 MiB (4%)
Writing library             : LAME3.99r
Encoding settings           : -m j -V 4 -q 3 -lowpass 15.1 --abr 96
Language                    : Telugu
Default                     : Yes
Forced                      : No




Agnyaathavaasi (2018) Telugu - 1080p - DVDscr - x264 - MP3-TMVAgnyaathavaasi (2018) Telugu - 1080p - DVDscr - x264 - MP3-TMVAgnyaathavaasi (2018) Telugu - 1080p - DVDscr - x264 - MP3-TMVAgnyaathavaasi (2018) Telugu - 1080p - DVDscr - x264 - MP3-TMVAgnyaathavaasi (2018) Telugu - 1080p - DVDscr - x264 - MP3-TMV





SINGLE DIRECT FAST LINKS
https://www.heroupload.com/6ced51a22e81190a/Agnyaathavaasi.2018.Telugu.DVDScr.1080p.x264.Line.Audio-TMV.mkv


http://filefloater.com/4b2/Agnyaathavaasi.2018.Telugu.DVDScr.1080p.x264.Line.Audio-TMV.mkv


700MB LINKS


https://www.heroupload.com/1d0b49c0b5850d8a/Agnyaathavaasi.2018.Telugu.DVDScr.1080p.x264.Line.Audio-TMV.part1.rar
https://www.heroupload.com/9e056b85691ad733/Agnyaathavaasi.2018.Telugu.DVDScr.1080p.x264.Line.Audio-TMV.part2.rar
https://www.heroupload.com/b9ed129a582ba1c9/Agnyaathavaasi.2018.Telugu.DVDScr.1080p.x264.Line.Audio-TMV.part3.rar
https://www.heroupload.com/30ff316c048002c1/Agnyaathavaasi.2018.Telugu.DVDScr.1080p.x264.Line.Audio-TMV.part4.rar



http://filefloater.com/4b3/Agnyaathavaasi.2018.Telugu.DVDScr.1080p.x264.Line.Audio-TMV.part1.rar
http://filefloater.com/4b4/Agnyaathavaasi.2018.Telugu.DVDScr.1080p.x264.Line.Audio-TMV.part2.rar
http://filefloater.com/4b5/Agnyaathavaasi.2018.Telugu.DVDScr.1080p.x264.Line.Audio-TMV.part3.rar
http://filefloater.com/4b6/Agnyaathavaasi.2018.Telugu.DVDScr.1080p.x264.Line.Audio-TMV.part4.rar



Comments:

Dear visitor, you went to the site as unregistered user
We encourage you to create an account or enter the site under your name

Add comment

Name:*
E-Mail:*
Text:
Bold Italic Underline Strike | Align left Center Align right | Insert smilies Insert link URLInsert protected URL Select color | Add Hidden Text Insert Quote Convert selected text from selection to Cyrillic (Russian) alphabet Insert spoiler
Enter the code: *

Create an account

Partner Site

Advertising