» » Jawaan (2017) Telugu - 14GB - 1080p -WEB-DL - AVC - AAC 2.0-Team Jio Exclusive

Jawaan (2017) Telugu - 14GB - 1080p -WEB-DL - AVC - AAC 2.0-Team Jio Exclusive

Jawaan (2017) Telugu - 14GB - 1080p -WEB-DL - AVC - AAC 2.0-Team Jio Exclusive






Format                      : MPEG-4
Format profile              : Base Media
Codec ID                    : isom (isom/iso2/avc1/mp41)
File size                   : 14.1 GiB
Duration                    : 2 h 9 min
Overall bit rate mode       : Variable
Overall bit rate            : 15.6 Mb/s
Writing application         : Lavf57.84.100

Video
ID                          : 1
Format                      : AVC
Format/Info                 : Advanced Video Codec
Format profile              : High@L4.2
Format settings             : CABAC / 2 Ref Frames
Format settings, CABAC      : Yes
Format settings, ReFrames   : 2 frames
Codec ID                    : avc1
Codec ID/Info               : Advanced Video Coding
Duration                    : 2 h 9 min
Bit rate mode               : Variable
Bit rate                    : 15.5 Mb/s
Maximum bit rate            : 40.0 Mb/s
Width                       : 1 920 pixels
Height                      : 1 080 pixels
Display aspect ratio        : 16:9
Frame rate mode             : Constant
Frame rate                  : 60.000 FPS
Color space                 : YUV
Chroma subsampling          : 4:2:0
Bit depth                   : 8 bits
Scan type                   : Progressive
Bits/(Pixel*Frame)          : 0.124
Stream size                 : 14.0 GiB (99%)
Color range                 : Full
Matrix coefficients         : BT.709

Audio
ID                          : 2
Format                      : AAC
Format/Info                 : Advanced Audio Codec
Format profile              : LC
Codec ID                    : mp4a-40-2
Duration                    : 2 h 9 min
Bit rate mode               : Constant
Bit rate                    : 132 kb/s
Channel(s)                  : 2 channels
Channel positions           : Front: L R
Sampling rate               : 48.0 kHz
Frame rate                  : 46.875 FPS (1024 SPF)
Compression mode            : Lossy
Stream size                 : 122 MiB (1%)



Jawaan (2017) Telugu - 14GB - 1080p -WEB-DL - AVC - AAC 2.0-Team Jio ExclusiveJawaan (2017) Telugu - 14GB - 1080p -WEB-DL - AVC - AAC 2.0-Team Jio ExclusiveJawaan (2017) Telugu - 14GB - 1080p -WEB-DL - AVC - AAC 2.0-Team Jio ExclusiveJawaan (2017) Telugu - 14GB - 1080p -WEB-DL - AVC - AAC 2.0-Team Jio ExclusiveJawaan (2017) Telugu - 14GB - 1080p -WEB-DL - AVC - AAC 2.0-Team Jio ExclusiveJawaan (2017) Telugu - 14GB - 1080p -WEB-DL - AVC - AAC 2.0-Team Jio ExclusiveJawaan (2017) Telugu - 14GB - 1080p -WEB-DL - AVC - AAC 2.0-Team Jio Exclusive

SINGLE DIRECT FAST LINKS

https://www.heroupload.com/4de78fbfe4c6c7d9/Jawaan.2017.1080p.WEB-HD.WEBDL.AAC.2.0-Team.Jio.Exclusive.mp4


2GB LINKS


http://filefloater.com/9ih/Jawaan.2017.1080p.WEB-HD.WEBDL.AAC.2.0-Team.Jio.Exclusive.part1.rar
http://filefloater.com/9ii/Jawaan.2017.1080p.WEB-HD.WEBDL.AAC.2.0-Team.Jio.Exclusive.part2.rar
http://filefloater.com/9ij/Jawaan.2017.1080p.WEB-HD.WEBDL.AAC.2.0-Team.Jio.Exclusive.part3.rar
http://filefloater.com/9ik/Jawaan.2017.1080p.WEB-HD.WEBDL.AAC.2.0-Team.Jio.Exclusive.part4.rar
http://filefloater.com/9il/Jawaan.2017.1080p.WEB-HD.WEBDL.AAC.2.0-Team.Jio.Exclusive.part5.rar
http://filefloater.com/9im/Jawaan.2017.1080p.WEB-HD.WEBDL.AAC.2.0-Team.Jio.Exclusive.part6.rar
http://filefloater.com/9in/Jawaan.2017.1080p.WEB-HD.WEBDL.AAC.2.0-Team.Jio.Exclusive.part7.rar
http://filefloater.com/9io/Jawaan.2017.1080p.WEB-HD.WEBDL.AAC.2.0-Team.Jio.Exclusive.part8.rar



https://www.heroupload.com/fe44bc096e8b1142/Jawaan.2017.1080p.WEB-HD.WEBDL.AAC.2.0-Team.Jio.Exclusive.part1.rar
https://www.heroupload.com/130fde44cfc4e4fe/Jawaan.2017.1080p.WEB-HD.WEBDL.AAC.2.0-Team.Jio.Exclusive.part2.rar
https://www.heroupload.com/3e0b1d7314b2a76e/Jawaan.2017.1080p.WEB-HD.WEBDL.AAC.2.0-Team.Jio.Exclusive.part3.rar
https://www.heroupload.com/badb562b94803c66/Jawaan.2017.1080p.WEB-HD.WEBDL.AAC.2.0-Team.Jio.Exclusive.part4.rar
https://www.heroupload.com/2394f3e9917fb074/Jawaan.2017.1080p.WEB-HD.WEBDL.AAC.2.0-Team.Jio.Exclusive.part5.rar
https://www.heroupload.com/737e1eaeb22bd872/Jawaan.2017.1080p.WEB-HD.WEBDL.AAC.2.0-Team.Jio.Exclusive.part6.rar
https://www.heroupload.com/503816dd254c86a1/Jawaan.2017.1080p.WEB-HD.WEBDL.AAC.2.0-Team.Jio.Exclusive.part7.rar
https://www.heroupload.com/d8d8f0138214134f/Jawaan.2017.1080p.WEB-HD.WEBDL.AAC.2.0-Team.Jio.Exclusive.part8.rar




Tags: Jawaan

Comments:

Dear visitor, you went to the site as unregistered user
We encourage you to create an account or enter the site under your name

Add comment

Name:*
E-Mail:*
Text:
Bold Italic Underline Strike | Align left Center Align right | Insert smilies Insert link URLInsert protected URL Select color | Add Hidden Text Insert Quote Convert selected text from selection to Cyrillic (Russian) alphabet Insert spoiler
Enter the code: *

Create an account

Partner Site

Advertising