» » Srinivasa Kalyanam (2018) Telugu - 1080p - WEB-HD - x264 - DD5.1-TMV

Srinivasa Kalyanam (2018) Telugu - 1080p - WEB-HD - x264 - DD5.1-TMV

Srinivasa Kalyanam (2018) Telugu - 1080p - WEB-HD - x264 - DD5.1-TMV





Format                      : Matroska
Format version              : Version 4 / Version 2
File size                   : 8.73 GiB
Duration                    : 2 h 19 min
Overall bit rate            : 8 957 kb/s
Encoded date                : UTC 2018-09-14 00:14:20
Writing application         : mkvmerge v8.2.0 ('World of Adventure') 64bit
Writing library             : libebml v1.3.1 + libmatroska v1.4.2

Video
ID                          : 1
Format                      : AVC
Format/Info                 : Advanced Video Codec
Format profile              : High@L4
Format settings, CABAC      : Yes
Format settings, RefFrames  : 4 frames
Codec ID                    : V_MPEG4/ISO/AVC
Duration                    : 2 h 19 min
Bit rate                    : 8 480 kb/s
Width                       : 1 920 pixels
Height                      : 816 pixels
Display aspect ratio        : 2.35:1
Frame rate mode             : Constant
Frame rate                  : 25.000 FPS
Color space                 : YUV
Chroma subsampling          : 4:2:0
Bit depth                   : 8 bits
Scan type                   : Progressive
Bits/(Pixel*Frame)          : 0.217
Stream size                 : 8.17 GiB (94%)
Writing library             : x264 core 148 r2643 5c65704
Encoding settings           : cabac=1 / ref=1 / deblock=1:0:0 / analyse=0x3:0x3 / me=dia / subme=1 / psy=1 / psy_rd=1.00:0.00 / mixed_ref=0 / me_range=16 / chroma_me=1 / trellis=0 / 8x8dct=1 / cqm=0 / deadzone=21,11 / fast_pskip=1 / chroma_qp_offset=0 / threads=12 / lookahead_threads=2 / sliced_threads=0 / nr=0 / decimate=1 / interlaced=0 / bluray_compat=0 / constrained_intra=0 / bframes=3 / b_pyramid=2 / b_adapt=1 / b_bias=0 / direct=1 / weightb=1 / open_gop=0 / weightp=1 / keyint=250 / keyint_min=25 / scenecut=40 / intra_refresh=0 / rc=abr / mbtree=0 / bitrate=8480 / ratetol=1.0 / qcomp=0.60 / qpmin=0 / qpmax=69 / qpstep=4 / ip_ratio=1.40 / pb_ratio=1.30 / aq=1:1.00
Language                    : Telugu
Default                     : Yes
Forced                      : No

Audio #1
ID                          : 2
Format                      : AAC
Format/Info                 : Advanced Audio Codec
Format profile              : LC
Codec ID                    : A_AAC
Duration                    : 2 h 19 min
Bit rate                    : 317 kb/s
Channel(s)                  : 6 channels
Channel positions           : Front: L C R, Side: L R, LFE
Sampling rate               : 44.1 kHz
Frame rate                  : 43.066 FPS (1024 SPF)
Compression mode            : Lossy
Stream size                 : 317 MiB (4%)
Language                    : Telugu
Default                     : Yes
Forced                      : No

Audio #2
ID                          : 3
Format                      : AC-3
Format/Info                 : Audio Coding 3
Format settings, Endianness : Big
Codec ID                    : A_AC3
Duration                    : 2 h 19 min
Bit rate mode               : Constant
Bit rate                    : 256 kb/s
Channel(s)                  : 6 channels
Channel positions           : Front: L C R, Side: L R, LFE
Sampling rate               : 44.1 kHz
Frame rate                  : 28.711 FPS (1536 SPF)
Bit depth                   : 16 bits
Compression mode            : Lossy
Stream size                 : 255 MiB (3%)
Language                    : Telugu
Service kind                : Complete Main
Default                     : No
Forced                      : No

Text
ID                          : 4
Format                      : UTF-8
Codec ID                    : S_TEXT/UTF8
Codec ID/Info               : UTF-8 Plain Text
Duration                    : 2 h 15 min
Bit rate                    : 77 b/s
Count of elements           : 2194
Stream size                 : 77.4 KiB (0%)
Language                    : English
Default                     : Yes
Forced                      : No



Srinivasa Kalyanam (2018) Telugu - 1080p - WEB-HD - x264 - DD5.1-TMVSrinivasa Kalyanam (2018) Telugu - 1080p - WEB-HD - x264 - DD5.1-TMVSrinivasa Kalyanam (2018) Telugu - 1080p - WEB-HD - x264 - DD5.1-TMVSrinivasa Kalyanam (2018) Telugu - 1080p - WEB-HD - x264 - DD5.1-TMVSrinivasa Kalyanam (2018) Telugu - 1080p - WEB-HD - x264 - DD5.1-TMVSrinivasa Kalyanam (2018) Telugu - 1080p - WEB-HD - x264 - DD5.1-TMVSrinivasa Kalyanam (2018) Telugu - 1080p - WEB-HD - x264 - DD5.1-TMVSrinivasa Kalyanam (2018) Telugu - 1080p - WEB-HD - x264 - DD5.1-TMVSrinivasa Kalyanam (2018) Telugu - 1080p - WEB-HD - x264 - DD5.1-TMV


SINGLE DIRECT FAST LINKS

http://www.heroupload.us/83ddd35d45155348/Srinivasa.Kalyanam.2018.Telugu.v2.True.HQ.WEB-HD.1080p.UNTOUCHED.x264.DD5.1.ESub-TMV.mkv


1GB LINKS

http://www.heroupload.us/0916349547ba4e19/Srinivasa.Kalyanam.2018.Telugu.v2.True.HQ.WEB-HD.1080p.UNTOUCHED.x264.DD5.1.ESub-TMV.part01.rar
http://www.heroupload.us/8d2a9a3702e57a49/Srinivasa.Kalyanam.2018.Telugu.v2.True.HQ.WEB-HD.1080p.UNTOUCHED.x264.DD5.1.ESub-TMV.part02.rar
http://www.heroupload.us/f28a186c15af6ea2/Srinivasa.Kalyanam.2018.Telugu.v2.True.HQ.WEB-HD.1080p.UNTOUCHED.x264.DD5.1.ESub-TMV.part03.rar
http://www.heroupload.us/94c71f50b0cae748/Srinivasa.Kalyanam.2018.Telugu.v2.True.HQ.WEB-HD.1080p.UNTOUCHED.x264.DD5.1.ESub-TMV.part04.rar
http://www.heroupload.us/de0b7d876b21b78e/Srinivasa.Kalyanam.2018.Telugu.v2.True.HQ.WEB-HD.1080p.UNTOUCHED.x264.DD5.1.ESub-TMV.part05.rar
http://www.heroupload.us/1c085c3dfbcabdf9/Srinivasa.Kalyanam.2018.Telugu.v2.True.HQ.WEB-HD.1080p.UNTOUCHED.x264.DD5.1.ESub-TMV.part06.rar
http://www.heroupload.us/a2503646777aa784/Srinivasa.Kalyanam.2018.Telugu.v2.True.HQ.WEB-HD.1080p.UNTOUCHED.x264.DD5.1.ESub-TMV.part07.rar
http://www.heroupload.us/593c8e82c581960e/Srinivasa.Kalyanam.2018.Telugu.v2.True.HQ.WEB-HD.1080p.UNTOUCHED.x264.DD5.1.ESub-TMV.part08.rar
http://www.heroupload.us/d1a0a7a26abad437/Srinivasa.Kalyanam.2018.Telugu.v2.True.HQ.WEB-HD.1080p.UNTOUCHED.x264.DD5.1.ESub-TMV.part09.rar



http://filefloater.com/1KN9/Srinivasa.Kalyanam.2018.Telugu.v2.True.HQ.WEB-HD.1080p.UNTOUCHED.x264.DD5.1.ESub-TMV.part01.rar
http://filefloater.com/30PS/Srinivasa.Kalyanam.2018.Telugu.v2.True.HQ.WEB-HD.1080p.UNTOUCHED.x264.DD5.1.ESub-TMV.part02.rar
http://filefloater.com/30PT/Srinivasa.Kalyanam.2018.Telugu.v2.True.HQ.WEB-HD.1080p.UNTOUCHED.x264.DD5.1.ESub-TMV.part03.rar
http://filefloater.com/2AP0/Srinivasa.Kalyanam.2018.Telugu.v2.True.HQ.WEB-HD.1080p.UNTOUCHED.x264.DD5.1.ESub-TMV.part04.rar
http://filefloater.com/2AP1/Srinivasa.Kalyanam.2018.Telugu.v2.True.HQ.WEB-HD.1080p.UNTOUCHED.x264.DD5.1.ESub-TMV.part05.rar
http://filefloater.com/2AP2/Srinivasa.Kalyanam.2018.Telugu.v2.True.HQ.WEB-HD.1080p.UNTOUCHED.x264.DD5.1.ESub-TMV.part06.rar
http://filefloater.com/2AP3/Srinivasa.Kalyanam.2018.Telugu.v2.True.HQ.WEB-HD.1080p.UNTOUCHED.x264.DD5.1.ESub-TMV.part07.rar
http://filefloater.com/2AP4/Srinivasa.Kalyanam.2018.Telugu.v2.True.HQ.WEB-HD.1080p.UNTOUCHED.x264.DD5.1.ESub-TMV.part08.rar
http://filefloater.com/1KNh/Srinivasa.Kalyanam.2018.Telugu.v2.True.HQ.WEB-HD.1080p.UNTOUCHED.x264.DD5.1.ESub-TMV.part09.rar


Buy Premium From My Links & Support Me

Tags: Srinivasa

Comments:

Dear visitor, you went to the site as unregistered user
We encourage you to create an account or enter the site under your name

Add comment

Name:*
E-Mail:*
Text:
Bold Italic Underline Strike | Align left Center Align right | Insert smilies Insert link URLInsert protected URL Select color | Add Hidden Text Insert Quote Convert selected text from selection to Cyrillic (Russian) alphabet Insert spoiler
Enter the code: *

Create an account

Advertising