» » Bharat Ennum Naan (2018) Tamil Ultra HD 4K - Untouched - AVC - Dolby ® 5.1 Esubs-MTR

Bharat Ennum Naan (2018) Tamil Ultra HD 4K - Untouched - AVC - Dolby ® 5.1 Esubs-MTR

Bharat Ennum Naan (2018) Tamil Ultra HD 4K - Untouched - AVC - Dolby ® 5.1 Esubs-MTR






General
Format                      : MPEG-4
Codec ID                    : M4V  (isom/avc1/mp42)
File size                   : 6.65 GiB
Duration                    : 2 h 48 min
Overall bit rate mode       : Variable
Overall bit rate            : 5 647 kb/s
Encoded date                : UTC 2018-06-14 12:03:14
Tagged date                 : UTC 2018-06-14 12:03:14

Video
ID                          : 1
Format                      : AVC
Format/Info                 : Advanced Video Codec
Format profile              : Main@L5.1
Format settings, CABAC      : Yes
Format settings, RefFrames  : 3 frames
Codec ID                    : avc1
Codec ID/Info               : Advanced Video Coding
Duration                    : 2 h 48 min
Bit rate mode               : Constant
Bit rate                    : 5 000 kb/s
Maximum bit rate            : 13.2 Mb/s
Width                       : 3 840 pixels
Height                      : 2 160 pixels
Display aspect ratio        : 16:9
Frame rate mode             : Constant
Frame rate                  : 24.000 FPS
Color space                 : YUV
Chroma subsampling          : 4:2:0
Bit depth                   : 8 bits
Scan type                   : Progressive
Bits/(Pixel*Frame)          : 0.025
Stream size                 : 5.89 GiB (89%)
Encoded date                : UTC 2018-06-14 12:03:14
Tagged date                 : UTC 2018-06-14 12:03:14
Color range                 : Limited
Color primaries             : BT.709
Transfer characteristics    : BT.709
Matrix coefficients         : BT.709

Audio #1
ID                          : 2
Format                      : AAC
Format/Info                 : Advanced Audio Codec
Format profile              : LC
Codec ID                    : 40
Duration                    : 2 h 48 min
Bit rate mode               : Variable
Bit rate                    : 128 kb/s
Maximum bit rate            : 133 kb/s
Channel(s)                  : 2 channels
Channel positions           : Front: L R
Sampling rate               : 48.0 kHz
Frame rate                  : 46.875 FPS (1024 SPF)
Compression mode            : Lossy
Stream size                 : 151 MiB (2%)
Language                    : English
Encoded date                : UTC 2018-06-14 12:03:14
Tagged date                 : UTC 2018-06-14 12:03:14

Audio #2
ID                          : 3
Format                      : AC-3
Format/Info                 : Audio Coding 3
Format settings, Endianness : Big
Codec ID                    : ac-3
Duration                    : 2 h 48 min
Bit rate mode               : Constant
Bit rate                    : 512 kb/s
Channel(s)                  : 6 channels
Channel positions           : Front: L C R, Side: L R, LFE
Sampling rate               : 48.0 kHz
Frame rate                  : 31.250 FPS (1536 SPF)
Bit depth                   : 16 bits
Compression mode            : Lossy
Stream size                 : 617 MiB (9%)
Language                    : English
Service kind                : Complete Main
Encoded date                : UTC 2018-06-14 12:03:14
Tagged date                 : UTC 2018-06-14 12:03:14



Bharat Ennum Naan (2018) Tamil Ultra HD 4K - Untouched - AVC - Dolby ® 5.1 Esubs-MTRBharat Ennum Naan (2018) Tamil Ultra HD 4K - Untouched - AVC - Dolby ® 5.1 Esubs-MTRBharat Ennum Naan (2018) Tamil Ultra HD 4K - Untouched - AVC - Dolby ® 5.1 Esubs-MTRBharat Ennum Naan (2018) Tamil Ultra HD 4K - Untouched - AVC - Dolby ® 5.1 Esubs-MTR


SINGLE DIRECT FAST LINKS

http://www.heroupload.us/7d7d2091e5fc6397/Bharat.Ennum.Naan.2018.4K.Untouched.UHD.Tamil-MTR.mp4


1GB LINKS

http://www.heroupload.us/c79cc2d372bde20b/Bharat.Ennum.Naan.2018.4K.Untouched.UHD.Tamil-MTR.part1.rar
http://www.heroupload.us/e262c5a83c1f2c96/Bharat.Ennum.Naan.2018.4K.Untouched.UHD.Tamil-MTR.part2.rar
http://www.heroupload.us/83c9767a565d6a6a/Bharat.Ennum.Naan.2018.4K.Untouched.UHD.Tamil-MTR.part3.rar
http://www.heroupload.us/5eb1a5e30c5271b9/Bharat.Ennum.Naan.2018.4K.Untouched.UHD.Tamil-MTR.part4.rar
http://www.heroupload.us/275fe743a051704c/Bharat.Ennum.Naan.2018.4K.Untouched.UHD.Tamil-MTR.part5.rar
http://www.heroupload.us/8b6a98fc0e1307e1/Bharat.Ennum.Naan.2018.4K.Untouched.UHD.Tamil-MTR.part6.rar
http://www.heroupload.us/4f763453085a922d/Bharat.Ennum.Naan.2018.4K.Untouched.UHD.Tamil-MTR.part7.rar



http://filefloater.com/Tp5/Bharat.Ennum.Naan.2018.4K.Untouched.UHD.Tamil-MTR.part1.rar
http://filefloater.com/Tp6/Bharat.Ennum.Naan.2018.4K.Untouched.UHD.Tamil-MTR.part2.rar
http://filefloater.com/Tp7/Bharat.Ennum.Naan.2018.4K.Untouched.UHD.Tamil-MTR.part3.rar
http://filefloater.com/Tp8/Bharat.Ennum.Naan.2018.4K.Untouched.UHD.Tamil-MTR.part4.rar
http://filefloater.com/Tp9/Bharat.Ennum.Naan.2018.4K.Untouched.UHD.Tamil-MTR.part5.rar
http://filefloater.com/Tpa/Bharat.Ennum.Naan.2018.4K.Untouched.UHD.Tamil-MTR.part6.rar
http://filefloater.com/Tpb/Bharat.Ennum.Naan.2018.4K.Untouched.UHD.Tamil-MTR.part7.rar






Tags: Bharat

Comments:

Dear visitor, you went to the site as unregistered user
We encourage you to create an account or enter the site under your name

Add comment

Name:*
E-Mail:*
Text:
Bold Italic Underline Strike | Align left Center Align right | Insert smilies Insert link URLInsert protected URL Select color | Add Hidden Text Insert Quote Convert selected text from selection to Cyrillic (Russian) alphabet Insert spoiler
Enter the code: *

Create an account

Advertising