» » Diya (2018) Tamil - 1080p - WEB-HD - AVC - AAC - ESubs-MTR

Diya (2018) Tamil - 1080p - WEB-HD - AVC - AAC - ESubs-MTR

Diya (2018) Tamil - 1080p - WEB-HD - AVC - AAC - ESubs-MTR





General
Format                      : MPEG-4
Format profile              : Base Media
Codec ID                    : isom (isom)
File size                   : 6.01 GiB
Duration                    : 1 h 39 min
Overall bit rate mode       : Variable
Overall bit rate            : 8 629 kb/s
Encoded date                : UTC 2018-05-17 18:21:58
Tagged date                 : UTC 2018-05-17 18:21:58
Writing application         : MkvToMp4 [www.mkvtomp4.ru] version 0.224 (x64)

Video
ID                          : 1
Format                      : AVC
Format/Info                 : Advanced Video Codec
Format profile              : High@L4
Format settings, CABAC      : Yes
Format settings, RefFrames  : 3 frames
Format settings, GOP        : M=4, N=90
Codec ID                    : avc1
Codec ID/Info               : Advanced Video Coding
Duration                    : 1 h 39 min
Source duration             : 1 h 39 min
Bit rate mode               : Constant
Bit rate                    : 8 500 kb/s
Maximum bit rate            : 18.3 Mb/s
Width                       : 1 920 pixels
Height                      : 1 080 pixels
Display aspect ratio        : 16:9
Frame rate mode             : Constant
Frame rate                  : 29.970 (30000/1001) FPS
Color space                 : YUV
Chroma subsampling          : 4:2:0
Bit depth                   : 8 bits
Scan type                   : Progressive
Bits/(Pixel*Frame)          : 0.137
Stream size                 : 5.68 GiB (94%)
Source stream size          : 5.92 GiB (99%)
Language                    : English
Tagged date                 : UTC 2018-05-17 18:22:13
Color range                 : Limited
Color primaries             : BT.709
Transfer characteristics    : BT.709
Matrix coefficients         : BT.709

Audio
ID                          : 2
Format                      : AAC
Format/Info                 : Advanced Audio Codec
Format profile              : LC
Codec ID                    : 40
Duration                    : 1 h 39 min
Bit rate mode               : Variable
Bit rate                    : 125 kb/s
Maximum bit rate            : 132 kb/s
Channel(s)                  : 2 channels
Channel positions           : Front: L R
Sampling rate               : 48.0 kHz
Frame rate                  : 46.875 FPS (1024 SPF)
Compression mode            : Lossy
Stream size                 : 89.4 MiB (1%)
Language                    : English
Default                     : Yes
Alternate group             : 1
Encoded date                : UTC 2018-05-17 18:22:11
Tagged date                 : UTC 2018-05-17 18:22:13



Diya (2018) Tamil - 1080p - WEB-HD - AVC - AAC - ESubs-MTRDiya (2018) Tamil - 1080p - WEB-HD - AVC - AAC - ESubs-MTRDiya (2018) Tamil - 1080p - WEB-HD - AVC - AAC - ESubs-MTRDiya (2018) Tamil - 1080p - WEB-HD - AVC - AAC - ESubs-MTR


SINGLE DIRECT FAST LINKS

http://www.heroupload.us/28adde9f93cf4c2c/Diya.2018.1080p.HD.AVC.MP4.ESubs.Tamil-MTR.mp4


1GB LINKS

http://www.heroupload.us/f26f4a84d473a6df/Diya.2018.1080p.HD.AVC.MP4.ESubs.Tamil-MTR.part1.rar
http://www.heroupload.us/49e6a9d0ccfb511f/Diya.2018.1080p.HD.AVC.MP4.ESubs.Tamil-MTR.part2.rar
http://www.heroupload.us/48df3c433ececf94/Diya.2018.1080p.HD.AVC.MP4.ESubs.Tamil-MTR.part3.rar
http://www.heroupload.us/dcfe9ce7e27fbadd/Diya.2018.1080p.HD.AVC.MP4.ESubs.Tamil-MTR.part4.rar
http://www.heroupload.us/149b238f6e904e9d/Diya.2018.1080p.HD.AVC.MP4.ESubs.Tamil-MTR.part5.rar
http://www.heroupload.us/73fa1ee8207db8d1/Diya.2018.1080p.HD.AVC.MP4.ESubs.Tamil-MTR.part6.rar
http://www.heroupload.us/65934ad989ab4cc2/Diya.2018.1080p.HD.AVC.MP4.ESubs.Tamil-MTR.part7.rar
http://www.heroupload.us/e69db90cc76d7de7/Diya.2018.1080p.HD.AVC.MP4.ESubs.Tamil-MTR.srt


http://filefloater.com/1j8N/Diya.2018.1080p.HD.AVC.MP4.ESubs.Tamil-MTR.part1.rar
http://filefloater.com/1j8O/Diya.2018.1080p.HD.AVC.MP4.ESubs.Tamil-MTR.part2.rar
http://filefloater.com/1j8P/Diya.2018.1080p.HD.AVC.MP4.ESubs.Tamil-MTR.part3.rar
http://filefloater.com/1j8Q/Diya.2018.1080p.HD.AVC.MP4.ESubs.Tamil-MTR.part4.rar
http://filefloater.com/1j8R/Diya.2018.1080p.HD.AVC.MP4.ESubs.Tamil-MTR.part5.rar
http://filefloater.com/1j8S/Diya.2018.1080p.HD.AVC.MP4.ESubs.Tamil-MTR.part6.rar
http://filefloater.com/1j8T/Diya.2018.1080p.HD.AVC.MP4.ESubs.Tamil-MTR.part7.rar
http://filefloater.com/T80/Diya.2018.1080p.HD.AVC.MP4.ESubs.Tamil-MTR.srt


Tags: Diya

Comments:

Dear visitor, you went to the site as unregistered user
We encourage you to create an account or enter the site under your name

Add comment

Name:*
E-Mail:*
Text:
Bold Italic Underline Strike | Align left Center Align right | Insert smilies Insert link URLInsert protected URL Select color | Add Hidden Text Insert Quote Convert selected text from selection to Cyrillic (Russian) alphabet Insert spoiler
Enter the code: *

Create an account

Advertising