» » Nimir (2018) Tamil - 1080p - WEB-HD - AVC - AAC 5.1 - ESubs-MTR

Nimir (2018) Tamil - 1080p - WEB-HD - AVC - AAC 5.1 - ESubs-MTR

Nimir (2018) Tamil - 1080p - WEB-HD - AVC - AAC 5.1 - ESubs-MTR






Format                      : MPEG-4
Format profile              : Base Media
Codec ID                    : isom (isom/iso2/avc1/mp41)
File size                   : 3.80 GiB
Duration                    : 2 h 3 min
Overall bit rate            : 4 405 kb/s
Writing application         : Lavf56.40.101

Video
ID                          : 1
Format                      : AVC
Format/Info                 : Advanced Video Codec
Format profile              : High@L4
Format settings, CABAC      : Yes
Format settings, RefFrames  : 4 frames
Codec ID                    : avc1
Codec ID/Info               : Advanced Video Coding
Duration                    : 2 h 3 min
Bit rate                    : 4 089 kb/s
Width                       : 1 920 pixels
Height                      : 1 080 pixels
Display aspect ratio        : 16:9
Frame rate mode             : Constant
Frame rate                  : 25.000 FPS
Color space                 : YUV
Chroma subsampling          : 4:2:0
Bit depth                   : 8 bits
Scan type                   : Progressive
Bits/(Pixel*Frame)          : 0.079
Stream size                 : 3.53 GiB (93%)
Writing library             : Zencoder Video Encoding System
Color range                 : Limited
Color primaries             : BT.709
Transfer characteristics    : BT.709
Matrix coefficients         : BT.709

Audio
ID                          : 2
Format                      : AAC
Format/Info                 : Advanced Audio Codec
Format profile              : LC
Codec ID                    : 40
Duration                    : 2 h 3 min
Bit rate mode               : Constant
Bit rate                    : 309 kb/s
Channel(s)                  : 2 channels
Channel(s)_Original         : 6 channels
Channel positions           : Front: L C R, Side: L R, LFE
Sampling rate               : 44.1 kHz
Frame rate                  : 43.066 FPS (1024 SPF)
Compression mode            : Lossy
Stream size                 : 273 MiB (7%)
Default                     : Yes
Alternate group             : 1


Nimir (2018) Tamil - 1080p - WEB-HD - AVC - AAC 5.1 - ESubs-MTRNimir (2018) Tamil - 1080p - WEB-HD - AVC - AAC 5.1 - ESubs-MTRNimir (2018) Tamil - 1080p - WEB-HD - AVC - AAC 5.1 - ESubs-MTR

SINGLE DIRECT FAST LINKS
https://www.heroupload.com/b11f40bfe8159f1b/Nimir.2018.1080p.v2.HD.AVC.MP4.5.1.ESubs.Tamil-.MTR.mp4


http://filefloater.com/4yp/Nimir.2018.1080p.v2.HD.AVC.MP4.5.1.ESubs.Tamil-.MTR.mp4

1GB LINKS

https://www.heroupload.com/1ab39fcfed59606d/Nimir.2018.1080p.v2.HD.AVC.MP4.5.1.ESubs.Tamil-.MTR.part1.rar
https://www.heroupload.com/71028267ef3307ed/Nimir.2018.1080p.v2.HD.AVC.MP4.5.1.ESubs.Tamil-.MTR.part2.rar
https://www.heroupload.com/8e4e9aaa5aa42a27/Nimir.2018.1080p.v2.HD.AVC.MP4.5.1.ESubs.Tamil-.MTR.part3.rar
https://www.heroupload.com/259bbe6a995758d1/Nimir.2018.1080p.v2.HD.AVC.MP4.5.1.ESubs.Tamil-.MTR.part4.rar



http://filefloater.com/4yq/Nimir.2018.1080p.v2.HD.AVC.MP4.5.1.ESubs.Tamil-.MTR.part1.rar
http://filefloater.com/4yr/Nimir.2018.1080p.v2.HD.AVC.MP4.5.1.ESubs.Tamil-.MTR.part2.rar
http://filefloater.com/4ys/Nimir.2018.1080p.v2.HD.AVC.MP4.5.1.ESubs.Tamil-.MTR.part3.rar
http://filefloater.com/4yt/Nimir.2018.1080p.v2.HD.AVC.MP4.5.1.ESubs.Tamil-.MTR.part4.rar


Tags: Nimir

Comments:

Dear visitor, you went to the site as unregistered user
We encourage you to create an account or enter the site under your name

Add comment

Name:*
E-Mail:*
Text:
Bold Italic Underline Strike | Align left Center Align right | Insert smilies Insert link URLInsert protected URL Select color | Add Hidden Text Insert Quote Convert selected text from selection to Cyrillic (Russian) alphabet Insert spoiler
Enter the code: *

Create an account

Advertising