» » Padai Veeran (2018) Tamil - 1080p - WEB-HD - AVC - AAC 5.1 - ESubs-MTR

Padai Veeran (2018) Tamil - 1080p - WEB-HD - AVC - AAC 5.1 - ESubs-MTR

Padai Veeran (2018) Tamil - 1080p - WEB-HD - AVC - AAC 5.1 - ESubs-MTR





General
Format                      : MPEG-4
Format profile              : Base Media
Codec ID                    : isom (isom)
File size                   : 3.70 GiB
Duration                    : 2 h 0 min
Overall bit rate mode       : Variable
Overall bit rate            : 4 402 kb/s
Encoded date                : UTC 2018-02-15 18:50:53
Tagged date                 : UTC 2018-02-15 18:50:53
Writing application         : MkvToMp4 [www.mkvtomp4.ru] version 0.224 (x64)

Video
ID                          : 1
Format                      : AVC
Format/Info                 : Advanced Video Codec
Format profile              : High@L4
Format settings, CABAC      : Yes
Format settings, RefFrames  : 4 frames
Format settings, GOP        : M=3, N=25
Codec ID                    : avc1
Codec ID/Info               : Advanced Video Coding
Duration                    : 2 h 0 min
Bit rate                    : 4 083 kb/s
Maximum bit rate            : 11.1 Mb/s
Width                       : 1 920 pixels
Height                      : 1 080 pixels
Display aspect ratio        : 16:9
Frame rate mode             : Constant
Frame rate                  : 25.000 FPS
Color space                 : YUV
Chroma subsampling          : 4:2:0
Bit depth                   : 8 bits
Scan type                   : Progressive
Bits/(Pixel*Frame)          : 0.079
Stream size                 : 3.43 GiB (93%)
Writing library             : Zencoder Video Encoding System
Language                    : English
Tagged date                 : UTC 2018-02-15 18:51:03
Color range                 : Limited
Color primaries             : BT.709
Transfer characteristics    : BT.709
Matrix coefficients         : BT.709

Audio
ID                          : 2
Format                      : AAC
Format/Info                 : Advanced Audio Codec
Format profile              : LC
Codec ID                    : 40
Duration                    : 2 h 0 min
Bit rate mode               : Variable
Bit rate                    : 315 kb/s
Maximum bit rate            : 378 kb/s
Channel(s)                  : 2 channels
Channel(s)_Original         : 6 channels
Channel positions           : Front: L C R, Side: L R, LFE
Sampling rate               : 48.0 kHz
Frame rate                  : 46.875 FPS (1024 SPF)
Compression mode            : Lossy
Stream size                 : 271 MiB (7%)
Language                    : English
Default                     : Yes
Alternate group             : 1
Encoded date                : UTC 2018-02-15 18:51:00
Tagged date                 : UTC 2018-02-15 18:51:03



Padai Veeran (2018) Tamil - 1080p - WEB-HD - AVC - AAC 5.1 - ESubs-MTRPadai Veeran (2018) Tamil - 1080p - WEB-HD - AVC - AAC 5.1 - ESubs-MTRPadai Veeran (2018) Tamil - 1080p - WEB-HD - AVC - AAC 5.1 - ESubs-MTRPadai Veeran (2018) Tamil - 1080p - WEB-HD - AVC - AAC 5.1 - ESubs-MTR


SINGLE DIRECT FAST LINKS
https://www.heroupload.com/e4da32df820cb670/Padai.Veeran.2018.1080p.v2.HD.AVC.MP4.5.1.ESubs.Tamil-MTR.mp4


http://filefloater.com/4vw/Padai.Veeran.2018.1080p.v2.HD.AVC.MP4.5.1.ESubs.Tamil-MTR.mp4

1GB LINKS

https://www.heroupload.com/5be58909f00766dc/Padai.Veeran.2018.1080p.v2.HD.AVC.MP4.5.1.ESubs.Tamil-MTR.part1.rar
https://www.heroupload.com/a4094a26dd1ef6ba/Padai.Veeran.2018.1080p.v2.HD.AVC.MP4.5.1.ESubs.Tamil-MTR.part2.rar
https://www.heroupload.com/99932c6967885201/Padai.Veeran.2018.1080p.v2.HD.AVC.MP4.5.1.ESubs.Tamil-MTR.part3.rar
https://www.heroupload.com/94fbf157b0898494/Padai.Veeran.2018.1080p.v2.HD.AVC.MP4.5.1.ESubs.Tamil-MTR.part4.rar
https://www.heroupload.com/cdc200ab49e1a44e/Padai.Veeran.2018.1080p.v2.HD.AVC.MP4.5.1.ESubs.Tamil-MTR.srt



http://filefloater.com/4vx/Padai.Veeran.2018.1080p.v2.HD.AVC.MP4.5.1.ESubs.Tamil-MTR.part1.rar
http://filefloater.com/4vy/Padai.Veeran.2018.1080p.v2.HD.AVC.MP4.5.1.ESubs.Tamil-MTR.part2.rar
http://filefloater.com/4vz/Padai.Veeran.2018.1080p.v2.HD.AVC.MP4.5.1.ESubs.Tamil-MTR.part3.rar
http://filefloater.com/76S/Padai.Veeran.2018.1080p.v2.HD.AVC.MP4.5.1.ESubs.Tamil-MTR.part4.rar
http://filefloater.com/76T/Padai.Veeran.2018.1080p.v2.HD.AVC.MP4.5.1.ESubs.Tamil-MTR.srt


Tags: Padai

Comments:

Dear visitor, you went to the site as unregistered user
We encourage you to create an account or enter the site under your name

Add comment

Name:*
E-Mail:*
Text:
Bold Italic Underline Strike | Align left Center Align right | Insert smilies Insert link URLInsert protected URL Select color | Add Hidden Text Insert Quote Convert selected text from selection to Cyrillic (Russian) alphabet Insert spoiler
Enter the code: *

Create an account

Advertising