» » Velaiilla Pattadhari 2 (2017) Tamil - V2 - PreDVDRip - XviD - MP3-TMV

Velaiilla Pattadhari 2 (2017) Tamil - V2 - PreDVDRip - XviD - MP3-TMV

Velaiilla Pattadhari 2 (2017) Tamil - V2 - PreDVDRip - XviD - MP3-TMV





General
Format                      : AVI
Format/Info                 : Audio Video Interleave
File size                   : 698 MiB
Duration                    : 2 h 3 min
Overall bit rate mode       : Variable
Overall bit rate            : 789 kb/s

Video
ID                          : 0
Format                      : MPEG-4 Visual
Format profile              : Advanced Simple@L5
Format settings, BVOP       : 2
Format settings, QPel       : No
Format settings, GMC        : No warppoints
Format settings, Matrix     : Default (H.263)
Codec ID                    : XVID
Codec ID/Hint               : XviD
Duration                    : 2 h 3 min
Bit rate                    : 684 kb/s
Width                       : 704 pixels
Height                      : 296 pixels
Display aspect ratio        : 2.40:1
Frame rate                  : 25.000 FPS
Color space                 : YUV
Chroma subsampling          : 4:2:0
Bit depth                   : 8 bits
Scan type                   : Progressive
Compression mode            : Lossy
Bits/(Pixel*Frame)          : 0.131
Stream size                 : 605 MiB (87%)
Writing library             : XviD 67

Audio
ID                          : 1
Format                      : MPEG Audio
Format version              : Version 1
Format profile              : Layer 3
Mode                        : Joint stereo
Mode extension              : MS Stereo
Codec ID                    : 55
Codec ID/Hint               : MP3
Duration                    : 2 h 3 min
Bit rate mode               : Variable
Bit rate                    : 96.0 kb/s
Channel(s)                  : 2 channels
Sampling rate               : 44.1 kHz
Compression mode            : Lossy
Stream size                 : 82.2 MiB (12%)
Alignment                   : Aligned on interleaves
Interleave, duration        : 26  ms (0.65 video frame)
Interleave, preload duratio : 89  ms
Writing library             : LAME3.99r
Encoding settings           : -m j -V 4 -q 3 -lowpass 15.1 --abr 96



Velaiilla Pattadhari 2 (2017) Tamil - V2 - PreDVDRip - XviD - MP3-TMVVelaiilla Pattadhari 2 (2017) Tamil - V2 - PreDVDRip - XviD - MP3-TMVVelaiilla Pattadhari 2 (2017) Tamil - V2 - PreDVDRip - XviD - MP3-TMVVelaiilla Pattadhari 2 (2017) Tamil - V2 - PreDVDRip - XviD - MP3-TMVVelaiilla Pattadhari 2 (2017) Tamil - V2 - PreDVDRip - XviD - MP3-TMVVelaiilla Pattadhari 2 (2017) Tamil - V2 - PreDVDRip - XviD - MP3-TMV

SINGLE DIRECT FAST LINKS


http://www.heroupload.com/0df588121595b513/VIP.2.2017.Tamil.XviD.700MB.Original.Audio.MP3-TMV.avi



http://filefloater.com/t8/VIP.2.2017.Tamil.XviD.700MB.Original.Audio.MP3-TMV.avi


Comments:

Dear visitor, you went to the site as unregistered user
We encourage you to create an account or enter the site under your name

Add comment

Name:*
E-Mail:*
Text:
Bold Italic Underline Strike | Align left Center Align right | Insert smilies Insert link URLInsert protected URL Select color | Add Hidden Text Insert Quote Convert selected text from selection to Cyrillic (Russian) alphabet Insert spoiler
Enter the code: *

Create an account

Who's Online?

Module online =)

Advertising

Tag Cloud

dle, news, templates