» » Sakka Podu Podu Raja (2017) Tamil - 1080p - WEB-HD - AVC - AAC - ESubs-MTR

Sakka Podu Podu Raja (2017) Tamil - 1080p - WEB-HD - AVC - AAC - ESubs-MTR

Sakka Podu Podu Raja (2017) Tamil - 1080p - WEB-HD - AVC - AAC - ESubs-MTR






General
Format                      : MPEG-4
Format profile              : Base Media
Codec ID                    : isom (isom)
File size                   : 3.77 GiB
Duration                    : 2 h 4 min
Overall bit rate mode       : Variable
Overall bit rate            : 4 347 kb/s
Encoded date                : UTC 2018-01-11 23:20:07
Tagged date                 : UTC 2018-01-11 23:20:07
Writing application         : MkvToMp4 [www.mkvtomp4.ru] version 0.224 (x64)

Video
ID                          : 1
Format                      : AVC
Format/Info                 : Advanced Video Codec
Format profile              : High@L4
Format settings, CABAC      : Yes
Format settings, RefFrames  : 3 frames
Format settings, GOP        : M=4, N=90
Codec ID                    : avc1
Codec ID/Info               : Advanced Video Coding
Duration                    : 2 h 4 min
Source duration             : 2 h 4 min
Bit rate mode               : Constant
Bit rate                    : 4 250 kb/s
Maximum bit rate            : 7 766 kb/s
Width                       : 1 920 pixels
Height                      : 1 080 pixels
Display aspect ratio        : 16:9
Frame rate mode             : Constant
Frame rate                  : 29.970 (30000/1001) FPS
Color space                 : YUV
Chroma subsampling          : 4:2:0
Bit depth                   : 8 bits
Scan type                   : Progressive
Bits/(Pixel*Frame)          : 0.068
Stream size                 : 3.54 GiB (94%)
Source stream size          : 3.69 GiB (98%)
Language                    : English
Tagged date                 : UTC 2018-01-11 23:20:18

Audio
ID                          : 2
Format                      : AAC
Format/Info                 : Advanced Audio Codec
Format profile              : LC
Codec ID                    : 40
Duration                    : 2 h 4 min
Bit rate mode               : Variable
Bit rate                    : 93.4 kb/s
Maximum bit rate            : 100 kb/s
Channel(s)                  : 2 channels
Channel positions           : Front: L R
Sampling rate               : 48.0 kHz
Frame rate                  : 46.875 FPS (1024 SPF)
Compression mode            : Lossy
Stream size                 : 83.0 MiB (2%)
Language                    : English
Default                     : Yes
Alternate group             : 1
Encoded date                : UTC 2018-01-11 23:20:16
Tagged date                 : UTC 2018-01-11 23:20:18



Sakka Podu Podu Raja (2017) Tamil - 1080p - WEB-HD - AVC - AAC - ESubs-MTRSakka Podu Podu Raja (2017) Tamil - 1080p - WEB-HD - AVC - AAC - ESubs-MTRSakka Podu Podu Raja (2017) Tamil - 1080p - WEB-HD - AVC - AAC - ESubs-MTRSakka Podu Podu Raja (2017) Tamil - 1080p - WEB-HD - AVC - AAC - ESubs-MTR


SINGLE DIRECT FAST LINKS
https://www.heroupload.com/c0568bc1edbb30fa/Sakka.Podu.Podu.Raja.2017.1080p.HD.AVC.MP4.ESubs.Tamil-MTR.mp4


http://filefloater.com/9op/Sakka.Podu.Podu.Raja.2017.1080p.HD.AVC.MP4.ESubs.Tamil-MTR.mp4

1GB LINKS


https://www.heroupload.com/ba1899533eb240ef/Sakka.Podu.Podu.Raja.2017.1080p.HD.AVC.MP4.ESubs.Tamil-MTR.part1.rar
https://www.heroupload.com/874c6a0d2067895a/Sakka.Podu.Podu.Raja.2017.1080p.HD.AVC.MP4.ESubs.Tamil-MTR.part2.rar
https://www.heroupload.com/22d8a35c4a8bfd68/Sakka.Podu.Podu.Raja.2017.1080p.HD.AVC.MP4.ESubs.Tamil-MTR.part3.rar
https://www.heroupload.com/37b59ff67e273b1f/Sakka.Podu.Podu.Raja.2017.1080p.HD.AVC.MP4.ESubs.Tamil-MTR.part4.rar
https://www.heroupload.com/fe3a6e195789c2bf/Sakka.Podu.Podu.Raja.2017.1080p.HD.AVC.MP4.ESubs.Tamil-MTR.srt



http://filefloater.com/9oq/Sakka.Podu.Podu.Raja.2017.1080p.HD.AVC.MP4.ESubs.Tamil-MTR.part1.rar
http://filefloater.com/9or/Sakka.Podu.Podu.Raja.2017.1080p.HD.AVC.MP4.ESubs.Tamil-MTR.part2.rar
http://filefloater.com/9os/Sakka.Podu.Podu.Raja.2017.1080p.HD.AVC.MP4.ESubs.Tamil-MTR.part3.rar
http://filefloater.com/9ot/Sakka.Podu.Podu.Raja.2017.1080p.HD.AVC.MP4.ESubs.Tamil-MTR.part4.rar
http://filefloater.com/9ou/Sakka.Podu.Podu.Raja.2017.1080p.HD.AVC.MP4.ESubs.Tamil-MTR.srt


Tags: Sakka

Comments:

Dear visitor, you went to the site as unregistered user
We encourage you to create an account or enter the site under your name

Add comment

Name:*
E-Mail:*
Text:
Bold Italic Underline Strike | Align left Center Align right | Insert smilies Insert link URLInsert protected URL Select color | Add Hidden Text Insert Quote Convert selected text from selection to Cyrillic (Russian) alphabet Insert spoiler
Enter the code: *

Create an account

Advertising