» » Brahma.com (2017) Tamil - 700MB - 1CDRip - HDRip - XviD - MP3 - ESubs-MTR

Brahma.com (2017) Tamil - 700MB - 1CDRip - HDRip - XviD - MP3 - ESubs-MTR

Brahma.com (2017) Tamil - 700MB - 1CDRip - HDRip - XviD - MP3 - ESubs-MTR





General
Format                      : AVI
Format/Info                 : Audio Video Interleave
File size                   : 716 MiB
Duration                    : 2 h 9 min
Overall bit rate            : 770 kb/s

Video
ID                          : 0
Format                      : MPEG-4 Visual
Format profile              : Advanced Simple@L5
Format settings, BVOP       : 2
Format settings, QPel       : No
Format settings, GMC        : No warppoints
Format settings, Matrix     : Default (H.263)
Codec ID                    : XVID
Codec ID/Hint               : XviD
Duration                    : 2 h 9 min
Bit rate                    : 667 kb/s
Width                       : 608 pixels
Height                      : 272 pixels
Display aspect ratio        : 2.25:1
Frame rate                  : 29.970 (30000/1001) FPS
Color space                 : YUV
Chroma subsampling          : 4:2:0
Bit depth                   : 8 bits
Scan type                   : Progressive
Compression mode            : Lossy
Bits/(Pixel*Frame)          : 0.135
Stream size                 : 620 MiB (87%)
Writing library             : XviD 67

Audio
ID                          : 1
Format                      : MPEG Audio
Format version              : Version 1
Format profile              : Layer 3
Mode                        : Joint stereo
Mode extension              : MS Stereo
Codec ID                    : 55
Codec ID/Hint               : MP3
Duration                    : 2 h 9 min
Bit rate mode               : Constant
Bit rate                    : 96.0 kb/s
Channel(s)                  : 2 channels
Sampling rate               : 48.0 kHz
Compression mode            : Lossy
Stream size                 : 89.2 MiB (12%)
Alignment                   : Aligned on interleaves
Interleave, duration        : 133  ms (4.00 video frames)
Interleave, preload duratio : 216  ms
Title                       : Brahma.com
Writing library             : LAME3.99.5



Brahma.com (2017) Tamil - 700MB - 1CDRip - HDRip - XviD - MP3 - ESubs-MTRBrahma.com (2017) Tamil - 700MB - 1CDRip - HDRip - XviD - MP3 - ESubs-MTRBrahma.com (2017) Tamil - 700MB - 1CDRip - HDRip - XviD - MP3 - ESubs-MTRBrahma.com (2017) Tamil - 700MB - 1CDRip - HDRip - XviD - MP3 - ESubs-MTRBrahma.com (2017) Tamil - 700MB - 1CDRip - HDRip - XviD - MP3 - ESubs-MTRBrahma.com (2017) Tamil - 700MB - 1CDRip - HDRip - XviD - MP3 - ESubs-MTRBrahma.com (2017) Tamil - 700MB - 1CDRip - HDRip - XviD - MP3 - ESubs-MTR


SINGLE DIRECT FAST LINKS



https://www.heroupload.com/e1a048015ccd120a/Brahma.com.2017.HDRip.XviD.MP3.700MB.ESubs.Tamil-MTR.avi
https://www.heroupload.com/2008db9c8b27bdd7/Brahma.com.2017.HDRip.XviD.MP3.700MB.ESubs.Tamil-MTR.srt



Tags: Brahma

Comments:

Dear visitor, you went to the site as unregistered user
We encourage you to create an account or enter the site under your name

Add comment

Name:*
E-Mail:*
Text:
Bold Italic Underline Strike | Align left Center Align right | Insert smilies Insert link URLInsert protected URL Select color | Add Hidden Text Insert Quote Convert selected text from selection to Cyrillic (Russian) alphabet Insert spoiler
Enter the code: *

Create an account

Advertising