» » Richie (2017) Tamil - 1080p - WEB-HD - AVC - AAC - ESubs-MTR

Richie (2017) Tamil - 1080p - WEB-HD - AVC - AAC - ESubs-MTR

Richie (2017) Tamil - 1080p - WEB-HD - AVC - AAC - ESubs-MTR





General
Format                      : MPEG-4
Format profile              : Base Media
Codec ID                    : isom (isom)
File size                   : 3.19 GiB
Duration                    : 1 h 44 min
Overall bit rate mode       : Variable
Overall bit rate            : 4 347 kb/s
Encoded date                : UTC 2017-12-21 18:23:17
Tagged date                 : UTC 2017-12-21 18:23:17
Writing application         : MkvToMp4 [www.mkvtomp4.ru] version 0.224 (x64)

Video
ID                          : 1
Format                      : AVC
Format/Info                 : Advanced Video Codec
Format profile              : High@L4
Format settings, CABAC      : Yes
Format settings, RefFrames  : 3 frames
Format settings, GOP        : M=4, N=90
Codec ID                    : avc1
Codec ID/Info               : Advanced Video Coding
Duration                    : 1 h 44 min
Source duration             : 1 h 44 min
Bit rate mode               : Constant
Bit rate                    : 4 250 kb/s
Maximum bit rate            : 10.3 Mb/s
Width                       : 1 920 pixels
Height                      : 1 080 pixels
Display aspect ratio        : 16:9
Frame rate mode             : Constant
Frame rate                  : 29.970 (30000/1001) FPS
Color space                 : YUV
Chroma subsampling          : 4:2:0
Bit depth                   : 8 bits
Scan type                   : Progressive
Bits/(Pixel*Frame)          : 0.068
Stream size                 : 2.98 GiB (94%)
Source stream size          : 3.11 GiB (98%)
Language                    : English
Tagged date                 : UTC 2017-12-21 18:23:23

Audio
ID                          : 2
Format                      : AAC
Format/Info                 : Advanced Audio Codec
Format profile              : LC
Codec ID                    : 40
Duration                    : 1 h 44 min
Bit rate mode               : Variable
Bit rate                    : 93.4 kb/s
Maximum bit rate            : 102 kb/s
Channel(s)                  : 2 channels
Channel positions           : Front: L R
Sampling rate               : 48.0 kHz
Frame rate                  : 46.875 FPS (1024 SPF)
Compression mode            : Lossy
Stream size                 : 70.1 MiB (2%)
Language                    : English
Default                     : Yes
Alternate group             : 1
Encoded date                : UTC 2017-12-21 18:23:22
Tagged date                 : UTC 2017-12-21 18:23:23



Richie (2017) Tamil - 1080p - WEB-HD - AVC - AAC - ESubs-MTRRichie (2017) Tamil - 1080p - WEB-HD - AVC - AAC - ESubs-MTRRichie (2017) Tamil - 1080p - WEB-HD - AVC - AAC - ESubs-MTRRichie (2017) Tamil - 1080p - WEB-HD - AVC - AAC - ESubs-MTR


SINGLE DIRECT FAST LINKS

https://www.heroupload.com/ad9fd0514f507e3a/Richie.2017.1080p.HD.AVC.MP4.ESubs.Tamil-MTR.mp4


700MB LINKS


https://www.heroupload.com/47a1d5046d2649b0/Richie.2017.1080p.HD.AVC.MP4.ESubs.Tamil-MTR.part1.rar
https://www.heroupload.com/9c9647e29e15fd49/Richie.2017.1080p.HD.AVC.MP4.ESubs.Tamil-MTR.part2.rar
https://www.heroupload.com/ced8490ce53d9753/Richie.2017.1080p.HD.AVC.MP4.ESubs.Tamil-MTR.part3.rar
https://www.heroupload.com/0900846350372790/Richie.2017.1080p.HD.AVC.MP4.ESubs.Tamil-MTR.part4.rar
https://www.heroupload.com/cca5a1a782fe5a1d/Richie.2017.1080p.HD.AVC.MP4.ESubs.Tamil-MTR.part5.rar
https://www.heroupload.com/97f80672fa99e7f0/Richie.2017.1080p.HD.AVC.MP4.ESubs.Tamil-MTR.srt



Tags: Richie

Comments:

Dear visitor, you went to the site as unregistered user
We encourage you to create an account or enter the site under your name

Add comment

Name:*
E-Mail:*
Text:
Bold Italic Underline Strike | Align left Center Align right | Insert smilies Insert link URLInsert protected URL Select color | Add Hidden Text Insert Quote Convert selected text from selection to Cyrillic (Russian) alphabet Insert spoiler
Enter the code: *

Create an account

Partner Site

Advertising