» » Richie (2017) Tamil - 700MB - 1CDRip - HDRip - XviD - MP3 - ESubs-MTR

Richie (2017) Tamil - 700MB - 1CDRip - HDRip - XviD - MP3 - ESubs-MTR

Richie (2017) Tamil - 700MB - 1CDRip - HDRip - XviD - MP3 - ESubs-MTR





General
Format                      : AVI
Format/Info                 : Audio Video Interleave
File size                   : 717 MiB
Duration                    : 1 h 44 min
Overall bit rate            : 956 kb/s

Video
ID                          : 0
Format                      : MPEG-4 Visual
Format profile              : Advanced Simple@L5
Format settings, BVOP       : 2
Format settings, QPel       : No
Format settings, GMC        : No warppoints
Format settings, Matrix     : Default (H.263)
Codec ID                    : XVID
Codec ID/Hint               : XviD
Duration                    : 1 h 44 min
Bit rate                    : 853 kb/s
Width                       : 608 pixels
Height                      : 256 pixels
Display aspect ratio        : 2.40:1
Frame rate                  : 29.970 (30000/1001) FPS
Color space                 : YUV
Chroma subsampling          : 4:2:0
Bit depth                   : 8 bits
Scan type                   : Progressive
Compression mode            : Lossy
Bits/(Pixel*Frame)          : 0.183
Stream size                 : 640 MiB (89%)
Writing library             : XviD 67

Audio
ID                          : 1
Format                      : MPEG Audio
Format version              : Version 1
Format profile              : Layer 3
Mode                        : Joint stereo
Mode extension              : MS Stereo
Codec ID                    : 55
Codec ID/Hint               : MP3
Duration                    : 1 h 44 min
Bit rate mode               : Constant
Bit rate                    : 96.0 kb/s
Channel(s)                  : 2 channels
Sampling rate               : 48.0 kHz
Compression mode            : Lossy
Stream size                 : 72.0 MiB (10%)
Alignment                   : Aligned on interleaves
Interleave, duration        : 133  ms (4.00 video frames)
Interleave, preload duratio : 216  ms
Title                       : Richie
Writing library             : LAME3.99.5



Richie (2017) Tamil - 700MB - 1CDRip - HDRip - XviD - MP3 - ESubs-MTRRichie (2017) Tamil - 700MB - 1CDRip - HDRip - XviD - MP3 - ESubs-MTRRichie (2017) Tamil - 700MB - 1CDRip - HDRip - XviD - MP3 - ESubs-MTRRichie (2017) Tamil - 700MB - 1CDRip - HDRip - XviD - MP3 - ESubs-MTRRichie (2017) Tamil - 700MB - 1CDRip - HDRip - XviD - MP3 - ESubs-MTRRichie (2017) Tamil - 700MB - 1CDRip - HDRip - XviD - MP3 - ESubs-MTR



SINGLE DIRECT FAST LINKS


https://www.heroupload.com/250a8874f2e30355/Richie.2017.HDRip.XviD.MP3.700MB.ESubs.Tamil-MTR.avi
https://www.heroupload.com/71f913c17bb7d94a/Richie.2017.HDRip.XviD.MP3.700MB.ESubs.Tamil-MTR.srt



Tags: Richie

Comments:

Dear visitor, you went to the site as unregistered user
We encourage you to create an account or enter the site under your name

Add comment

Name:*
E-Mail:*
Text:
Bold Italic Underline Strike | Align left Center Align right | Insert smilies Insert link URLInsert protected URL Select color | Add Hidden Text Insert Quote Convert selected text from selection to Cyrillic (Russian) alphabet Insert spoiler
Enter the code: *

Create an account

Partner Site

Advertising