» » Ivan Thanthiran (2017) Tamil - Proper - 1080p - WEB-HD - AVC - AAC 5.1 - ESubs-MTR

Ivan Thanthiran (2017) Tamil - Proper - 1080p - WEB-HD - AVC - AAC 5.1 - ESubs-MTR

Ivan Thanthiran (2017) Tamil - Proper - 1080p - WEB-HD - AVC - AAC 5.1 - ESubs-MTR






General
Format                      : MPEG-4
Format profile              : Base Media
Codec ID                    : isom (isom)
File size                   : 3.52 GiB
Duration                    : 1 h 55 min
Overall bit rate mode       : Variable
Overall bit rate            : 4 386 kb/s
Encoded date                : UTC 2017-08-03 19:25:04
Tagged date                 : UTC 2017-08-03 19:25:04
Writing application         : MkvToMp4 [www.mkvtomp4.ru] version 0.224 (x64)

Video
ID                          : 1
Format                      : AVC
Format/Info                 : Advanced Video Codec
Format profile              : High@L4.1
Format settings, CABAC      : Yes
Format settings, ReFrames   : 4 frames
Format settings, GOP        : M=4, N=50
Codec ID                    : avc1
Codec ID/Info               : Advanced Video Coding
Duration                    : 1 h 54 min
Bit rate                    : 4 096 kb/s
Maximum bit rate            : 6 850 kb/s
Width                       : 1 920 pixels
Height                      : 1 080 pixels
Display aspect ratio        : 16:9
Frame rate mode             : Constant
Frame rate                  : 25.000 FPS
Color space                 : YUV
Chroma subsampling          : 4:2:0
Bit depth                   : 8 bits
Scan type                   : Progressive
Bits/(Pixel*Frame)          : 0.079
Stream size                 : 3.26 GiB (93%)
Writing library             : x264 core 142 r2479 dd79a61
Encoding settings           : cabac=1 / ref=3 / deblock=1:0:0 / analyse=0x3:0x113 / me=hex / subme=7 / psy=1 / psy_rd=1.00:0.00 / mixed_ref=1 / me_range=16 / chroma_me=1 / trellis=1 / 8x8dct=1 / cqm=0 / deadzone=21,11 / fast_pskip=1 / chroma_qp_offset=-2 / threads=12 / lookahead_threads=2 / sliced_threads=0 / nr=0 / decimate=1 / interlaced=0 / bluray_compat=0 / constrained_intra=0 / bframes=3 / b_pyramid=2 / b_adapt=1 / b_bias=0 / direct=1 / weightb=1 / open_gop=0 / weightp=2 / keyint=50 / keyint_min=26 / scenecut=0 / intra_refresh=0 / rc_lookahead=40 / rc=abr / mbtree=1 / bitrate=4096 / ratetol=1.0 / qcomp=0.60 / qpmin=0 / qpmax=69 / qpstep=4 / vbv_maxrate=4200 / vbv_bufsize=4200 / nal_hrd=none / filler=0 / ip_ratio=1.40 / aq=1:1.00
Language                    : English
Tagged date                 : UTC 2017-08-03 19:25:19

Audio
ID                          : 2
Format                      : AAC
Format/Info                 : Advanced Audio Codec
Format profile              : LC
Codec ID                    : 40
Duration                    : 1 h 55 min
Bit rate mode               : Variable
Bit rate                    : 323 kb/s
Maximum bit rate            : 550 kb/s
Channel(s)                  : 2 channels
Channel(s)_Original         : 6 channels
Channel positions           : Front: L C R, Side: L R, LFE
Sampling rate               : 48.0 kHz
Frame rate                  : 46.875 FPS (1024 spf)
Compression mode            : Lossy
Stream size                 : 266 MiB (7%)
Language                    : English
Default                     : Yes
Alternate group             : 1
Encoded date                : UTC 2017-08-03 19:25:12
Tagged date                 : UTC 2017-08-03 19:25:19




Ivan Thanthiran (2017) Tamil - Proper - 1080p - WEB-HD - AVC - AAC 5.1 - ESubs-MTRIvan Thanthiran (2017) Tamil - Proper - 1080p - WEB-HD - AVC - AAC 5.1 - ESubs-MTRIvan Thanthiran (2017) Tamil - Proper - 1080p - WEB-HD - AVC - AAC 5.1 - ESubs-MTRIvan Thanthiran (2017) Tamil - Proper - 1080p - WEB-HD - AVC - AAC 5.1 - ESubs-MTRIvan Thanthiran (2017) Tamil - Proper - 1080p - WEB-HD - AVC - AAC 5.1 - ESubs-MTR


Buy HeroUpload Premium Account and Support Us.



[B]SINGLE DIRECT FAST LINKS[/B]

http://www.heroupload.com/135da42255c579c4/Ivan.Thanthiran.2017.1080p.v2.HD.5.1.AVC.MP4.ESubs.Tamil-MTR.mp4


[B]1GB LINKS[/B]



http://www.heroupload.com/87cd119d43608cae/Ivan.Thanthiran.2017.1080p.v2.HD.5.1.AVC.MP4.ESubs.Tamil-MTR.part1.rar
http://www.heroupload.com/01542f3c31d088a0/Ivan.Thanthiran.2017.1080p.v2.HD.5.1.AVC.MP4.ESubs.Tamil-MTR.part2.rar
http://www.heroupload.com/09acb2b8923cc7a3/Ivan.Thanthiran.2017.1080p.v2.HD.5.1.AVC.MP4.ESubs.Tamil-MTR.part3.rar
http://www.heroupload.com/a82973dd8bfcdfb0/Ivan.Thanthiran.2017.1080p.v2.HD.5.1.AVC.MP4.ESubs.Tamil-MTR.part4.rar
http://www.heroupload.com/c7100ca91814bb8e/Ivan.Thanthiran.2017.1080p.v2.HD.5.1.AVC.MP4.ESubs.Tamil-MTR.srt



Comments:

Dear visitor, you went to the site as unregistered user
We encourage you to create an account or enter the site under your name

Add comment

Name:*
E-Mail:*
Text:
Bold Italic Underline Strike | Align left Center Align right | Insert smilies Insert link URLInsert protected URL Select color | Add Hidden Text Insert Quote Convert selected text from selection to Cyrillic (Russian) alphabet Insert spoiler
Enter the code: *

Create an account

Who's Online?

Module online =)

Advertising

Tag Cloud

dle, news, templates