» » Imaikkaa Nodigal (2018) Tamil Ultra HD 4K - Untouched - AVC - Dolby ® 5.1 - Esubs-MTR

Imaikkaa Nodigal (2018) Tamil Ultra HD 4K - Untouched - AVC - Dolby ® 5.1 - Esubs-MTR

Imaikkaa Nodigal (2018) Tamil Ultra HD 4K - Untouched - AVC - Dolby ® 5.1 - Esubs-MTR





Duration                    : 2 h 48 min
Overall bit rate mode       : Variable
Overall bit rate            : 5 647 kb/s
Encoded date                : UTC 2018-10-09 08:42:34
Tagged date                 : UTC 2018-10-09 08:42:34

Video
ID                          : 1
Format                      : AVC
Format/Info                 : Advanced Video Codec
Format profile              : Main@L5.1
Format settings, CABAC      : Yes
Format settings, RefFrames  : 3 frames
Format settings, GOP        : M=3, N=90
Codec ID                    : avc1
Codec ID/Info               : Advanced Video Coding
Duration                    : 2 h 48 min
Bit rate mode               : Constant
Bit rate                    : 5 000 kb/s
Maximum bit rate            : 13.1 Mb/s
Width                       : 3 840 pixels
Height                      : 2 160 pixels
Display aspect ratio        : 16:9
Frame rate mode             : Constant
Frame rate                  : 24.000 FPS
Color space                 : YUV
Chroma subsampling          : 4:2:0
Bit depth                   : 8 bits
Scan type                   : Progressive
Bits/(Pixel*Frame)          : 0.025
Stream size                 : 5.88 GiB (89%)
Encoded date                : UTC 2018-10-09 08:42:34
Tagged date                 : UTC 2018-10-09 08:42:34
Color range                 : Limited
Color primaries             : BT.709
Transfer characteristics    : BT.709
Matrix coefficients         : BT.709

Audio #1
ID                          : 2
Format                      : AAC
Format/Info                 : Advanced Audio Codec
Format profile              : LC
Codec ID                    : 40
Duration                    : 2 h 48 min
Bit rate mode               : Variable
Bit rate                    : 128 kb/s
Maximum bit rate            : 132 kb/s
Channel(s)                  : 2 channels
Channel positions           : Front: L R
Sampling rate               : 48.0 kHz
Frame rate                  : 46.875 FPS (1024 SPF)
Compression mode            : Lossy
Stream size                 : 151 MiB (2%)
Language                    : English
Encoded date                : UTC 2018-10-09 08:42:34
Tagged date                 : UTC 2018-10-09 08:42:34

Audio #2
ID                          : 3
Format                      : AC-3
Format/Info                 : Audio Coding 3
Format settings, Endianness : Big
Codec ID                    : ac-3
Duration                    : 2 h 48 min
Bit rate mode               : Constant
Bit rate                    : 512 kb/s
Channel(s)                  : 6 channels
Channel positions           : Front: L C R, Side: L R, LFE
Sampling rate               : 48.0 kHz
Frame rate                  : 31.250 FPS (1536 SPF)
Bit depth                   : 16 bits
Compression mode            : Lossy
Stream size                 : 617 MiB (9%)
Language                    : English
Service kind                : Complete Main
Encoded date                : UTC 2018-10-09 08:42:34
Tagged date                 : UTC 2018-10-09 08:42:34


Imaikkaa Nodigal (2018) Tamil Ultra HD 4K - Untouched - AVC - Dolby ® 5.1 - Esubs-MTRImaikkaa Nodigal (2018) Tamil Ultra HD 4K - Untouched - AVC - Dolby ® 5.1 - Esubs-MTRImaikkaa Nodigal (2018) Tamil Ultra HD 4K - Untouched - AVC - Dolby ® 5.1 - Esubs-MTRImaikkaa Nodigal (2018) Tamil Ultra HD 4K - Untouched - AVC - Dolby ® 5.1 - Esubs-MTR


SINGLE DIRECT FAST LINKS

http://www.heroupload.us/5d098d387728d4f8/Imaikkaa.Nodigal.2018.4K.Untouched.UHD.MP4.ESubs.Tamil-MTR.mp4


1GB LINKS

http://www.heroupload.us/c8cb39f0ee5b31ba/Imaikkaa.Nodigal.2018.4K.Untouched.UHD.MP4.ESubs.Tamil-MTR.part1.rar
http://www.heroupload.us/ec316dc6a45b0b6d/Imaikkaa.Nodigal.2018.4K.Untouched.UHD.MP4.ESubs.Tamil-MTR.part2.rar
http://www.heroupload.us/462480be8bce0d4e/Imaikkaa.Nodigal.2018.4K.Untouched.UHD.MP4.ESubs.Tamil-MTR.part3.rar
http://www.heroupload.us/eca87c458503b101/Imaikkaa.Nodigal.2018.4K.Untouched.UHD.MP4.ESubs.Tamil-MTR.part4.rar
http://www.heroupload.us/8ba30dbe7c5dac84/Imaikkaa.Nodigal.2018.4K.Untouched.UHD.MP4.ESubs.Tamil-MTR.part5.rar
http://www.heroupload.us/0ce702f28fc35449/Imaikkaa.Nodigal.2018.4K.Untouched.UHD.MP4.ESubs.Tamil-MTR.part6.rar
http://www.heroupload.us/cbc1d2650518a810/Imaikkaa.Nodigal.2018.4K.Untouched.UHD.MP4.ESubs.Tamil-MTR.part7.rar
http://www.heroupload.us/d2706b8fde71819b/Imaikkaa.Nodigal.2018.4K.Untouched.UHD.MP4.ESubs.Tamil-MTR.srt



http://filefloater.com/1KY9/Imaikkaa.Nodigal.2018.4K.Untouched.UHD.MP4.ESubs.Tamil-MTR.part1.rar
http://filefloater.com/310S/Imaikkaa.Nodigal.2018.4K.Untouched.UHD.MP4.ESubs.Tamil-MTR.part2.rar
http://filefloater.com/310T/Imaikkaa.Nodigal.2018.4K.Untouched.UHD.MP4.ESubs.Tamil-MTR.part3.rar
http://filefloater.com/2B00/Imaikkaa.Nodigal.2018.4K.Untouched.UHD.MP4.ESubs.Tamil-MTR.part4.rar
http://filefloater.com/2B01/Imaikkaa.Nodigal.2018.4K.Untouched.UHD.MP4.ESubs.Tamil-MTR.part5.rar
http://filefloater.com/2B02/Imaikkaa.Nodigal.2018.4K.Untouched.UHD.MP4.ESubs.Tamil-MTR.part6.rar
http://filefloater.com/2B03/Imaikkaa.Nodigal.2018.4K.Untouched.UHD.MP4.ESubs.Tamil-MTR.part7.rar
http://filefloater.com/2B04/Imaikkaa.Nodigal.2018.4K.Untouched.UHD.MP4.ESubs.Tamil-MTR.srt


Buy Premium From My Links & Support Me

Tags: Imaikkaa

Comments:

Dear visitor, you went to the site as unregistered user
We encourage you to create an account or enter the site under your name

Add comment

Name:*
E-Mail:*
Text:
Bold Italic Underline Strike | Align left Center Align right | Insert smilies Insert link URLInsert protected URL Select color | Add Hidden Text Insert Quote Convert selected text from selection to Cyrillic (Russian) alphabet Insert spoiler
Enter the code: *

Create an account

Advertising