» » Theeran Adhigaaram Ondru (2017) Ultra HD 4K - Untouched - AVC - Dolby ® 5.1 - Esubs-M

Theeran Adhigaaram Ondru (2017) Ultra HD 4K - Untouched - AVC - Dolby ® 5.1 - Esubs-M

Theeran Adhigaaram Ondru (2017) Ultra HD 4K - Untouched - AVC - Dolby ® 5.1 - Esubs-M





General
Format                      : MPEG-4
Codec ID                    : M4V  (isom/avc1/mp42)
File size                   : 6.15 GiB
Duration                    : 2 h 36 min
Overall bit rate mode       : Variable
Overall bit rate            : 5 615 kb/s
Encoded date                : UTC 2017-12-14 10:26:51
Tagged date                 : UTC 2017-12-14 10:26:51

Video
ID                          : 1
Format                      : AVC
Format/Info                 : Advanced Video Codec
Format profile              : Main@L5.1
Format settings, CABAC      : Yes
Format settings, RefFrames  : 2 frames
Codec ID                    : avc1
Codec ID/Info               : Advanced Video Coding
Duration                    : 2 h 36 min
Bit rate mode               : Constant
Bit rate                    : 5 000 kb/s
Maximum bit rate            : 13.4 Mb/s
Width                       : 3 840 pixels
Height                      : 2 160 pixels
Display aspect ratio        : 16:9
Frame rate mode             : Constant
Frame rate                  : 24.000 FPS
Color space                 : YUV
Chroma subsampling          : 4:2:0
Bit depth                   : 8 bits
Scan type                   : Progressive
Bits/(Pixel*Frame)          : 0.025
Stream size                 : 5.47 GiB (89%)
Encoded date                : UTC 2017-12-14 10:26:51
Tagged date                 : UTC 2017-12-14 10:26:51

Audio #1
ID                          : 2
Format                      : AAC
Format/Info                 : Advanced Audio Codec
Format profile              : LC
Codec ID                    : 40
Duration                    : 2 h 36 min
Bit rate mode               : Variable
Bit rate                    : 96.0 kb/s
Maximum bit rate            : 100 kb/s
Channel(s)                  : 2 channels
Channel positions           : Front: L R
Sampling rate               : 48.0 kHz
Frame rate                  : 46.875 FPS (1024 SPF)
Compression mode            : Lossy
Stream size                 : 105 MiB (2%)
Language                    : English
Encoded date                : UTC 2017-12-14 10:26:51
Tagged date                 : UTC 2017-12-14 10:26:51

Audio #2
ID                          : 3
Format                      : AC-3
Format/Info                 : Audio Coding 3
Format settings, Endianness : Big
Codec ID                    : ac-3
Duration                    : 2 h 36 min
Bit rate mode               : Constant
Bit rate                    : 512 kb/s
Channel(s)                  : 6 channels
Channel positions           : Front: L C R, Side: L R, LFE
Sampling rate               : 48.0 kHz
Frame rate                  : 31.250 FPS (1536 SPF)
Bit depth                   : 16 bits
Compression mode            : Lossy
Stream size                 : 574 MiB (9%)
Language                    : English
Service kind                : Complete Main
Encoded date                : UTC 2017-12-14 10:26:51
Tagged date                 : UTC 2017-12-14 10:26:51


Theeran Adhigaaram Ondru (2017) Ultra HD 4K - Untouched - AVC - Dolby ® 5.1 - Esubs-MTheeran Adhigaaram Ondru (2017) Ultra HD 4K - Untouched - AVC - Dolby ® 5.1 - Esubs-MTheeran Adhigaaram Ondru (2017) Ultra HD 4K - Untouched - AVC - Dolby ® 5.1 - Esubs-MTheeran Adhigaaram Ondru (2017) Ultra HD 4K - Untouched - AVC - Dolby ® 5.1 - Esubs-MTheeran Adhigaaram Ondru (2017) Ultra HD 4K - Untouched - AVC - Dolby ® 5.1 - Esubs-MTheeran Adhigaaram Ondru (2017) Ultra HD 4K - Untouched - AVC - Dolby ® 5.1 - Esubs-M

SINGLE DIRECT FAST LINKS

http://www.heroupload.com/02cfa9a11a64b6ed/Theeran.Adhigaaram.Ondru.2017.4K.Untouched.UHD.MP4.Tamil-MTR.mp4


1GB LINKS



http://www.heroupload.com/fd70d23a4b8de6e2/Theeran.Adhigaaram.Ondru.2017.4K.Untouched.UHD.MP4.Tamil-MTR.part1.rar
http://www.heroupload.com/dec59241dd8208db/Theeran.Adhigaaram.Ondru.2017.4K.Untouched.UHD.MP4.Tamil-MTR.part2.rar
http://www.heroupload.com/647b0314ebc3036b/Theeran.Adhigaaram.Ondru.2017.4K.Untouched.UHD.MP4.Tamil-MTR.part3.rar
http://www.heroupload.com/58901894d300cd67/Theeran.Adhigaaram.Ondru.2017.4K.Untouched.UHD.MP4.Tamil-MTR.part4.rar
http://www.heroupload.com/ad84ea6fee7db9cf/Theeran.Adhigaaram.Ondru.2017.4K.Untouched.UHD.MP4.Tamil-MTR.part5.rar
http://www.heroupload.com/ae74ad7c0c5a6845/Theeran.Adhigaaram.Ondru.2017.4K.Untouched.UHD.MP4.Tamil-MTR.part6.rar
http://www.heroupload.com/54b8f62fd0fbdde9/Theeran.Adhigaaram.Ondru.2017.4K.Untouched.UHD.MP4.Tamil-MTR.part7.rar
http://www.heroupload.com/619fdd4a6b3b2294/Theeran.Adhigaaram.Ondru.2017.4K.Untouched.UHD.MP4.Tamil-MTR.srt



Tags: Theeran

Comments:

Dear visitor, you went to the site as unregistered user
We encourage you to create an account or enter the site under your name

Add comment

Name:*
E-Mail:*
Text:
Bold Italic Underline Strike | Align left Center Align right | Insert smilies Insert link URLInsert protected URL Select color | Add Hidden Text Insert Quote Convert selected text from selection to Cyrillic (Russian) alphabet Insert spoiler
Enter the code: *

Create an account

Advertising