» » Annanukku Jai (2018) Tamil - 720p - HDRip - x264 - DD5.1 - Esubs-MTR

Annanukku Jai (2018) Tamil - 720p - HDRip - x264 - DD5.1 - Esubs-MTR

Annanukku Jai (2018) Tamil - 720p - HDRip - x264 - DD5.1 - Esubs-MTR





Format                      : Matroska
Format version              : Version 4 / Version 2
File size                   : 1.41 GiB
Duration                    : 1 h 44 min
Overall bit rate            : 1 934 kb/s
Encoded date                : UTC 2018-09-20 18:58:57
Writing application         : mkvmerge v7.8.0 ('River Man') 64bit built on Mar 27 2015 16:31:37
Writing library             : libebml v1.3.1 + libmatroska v1.4.2

Video
ID                          : 1
Format                      : AVC
Format/Info                 : Advanced Video Codec
Format profile              : High@L3.1
Format settings, CABAC      : Yes
Format settings, RefFrames  : 5 frames
Codec ID                    : V_MPEG4/ISO/AVC
Duration                    : 1 h 44 min
Bit rate                    : 1 772 kb/s
Width                       : 1 280 pixels
Height                      : 544 pixels
Display aspect ratio        : 2.35:1
Frame rate mode             : Constant
Frame rate                  : 29.970 (30000/1001) FPS
Color space                 : YUV
Chroma subsampling          : 4:2:0
Bit depth                   : 8 bits
Scan type                   : Progressive
Bits/(Pixel*Frame)          : 0.085
Stream size                 : 1.30 GiB (92%)
Writing library             : x264 core 152 r2851 ba24899
Encoding settings           : cabac=1 / ref=5 / deblock=1:0:0 / analyse=0x3:0x113 / me=hex / subme=8 / psy=1 / psy_rd=1.00:0.00 / mixed_ref=1 / me_range=16 / chroma_me=1 / trellis=2 / 8x8dct=1 / cqm=0 / deadzone=21,11 / fast_pskip=1 / chroma_qp_offset=-2 / threads=17 / lookahead_threads=2 / sliced_threads=0 / nr=0 / decimate=1 / interlaced=0 / bluray_compat=0 / constrained_intra=0 / bframes=3 / b_pyramid=2 / b_adapt=1 / b_bias=0 / direct=3 / weightb=1 / open_gop=0 / weightp=2 / keyint=300 / keyint_min=29 / scenecut=40 / intra_refresh=0 / rc_lookahead=50 / rc=2pass / mbtree=1 / bitrate=1772 / ratetol=1.0 / qcomp=0.60 / qpmin=0 / qpmax=69 / qpstep=4 / cplxblur=20.0 / qblur=0.5 / ip_ratio=1.40 / aq=1:1.00
Language                    : English
Default                     : Yes
Forced                      : No

Audio
ID                          : 2
Format                      : AC-3
Format/Info                 : Audio Coding 3
Format settings, Endianness : Big
Codec ID                    : A_AC3
Duration                    : 1 h 44 min
Bit rate mode               : Constant
Bit rate                    : 160 kb/s
Channel(s)                  : 6 channels
Channel positions           : Front: L C R, Side: L R, LFE
Sampling rate               : 44.1 kHz
Frame rate                  : 28.711 FPS (1536 SPF)
Bit depth                   : 16 bits
Compression mode            : Lossy
Stream size                 : 120 MiB (8%)
Language                    : English
Service kind                : Complete Main
Default                     : Yes
Forced                      : No

Text
ID                          : 3
Format                      : UTF-8
Codec ID                    : S_TEXT/UTF8
Codec ID/Info               : UTF-8 Plain Text
Duration                    : 1 h 41 min
Bit rate                    : 73 b/s
Count of elements           : 1743
Stream size                 : 55.1 KiB (0%)
Language                    : English
Default                     : No
Forced                      : No



Annanukku Jai (2018) Tamil - 720p - HDRip - x264 - DD5.1 - Esubs-MTRAnnanukku Jai (2018) Tamil - 720p - HDRip - x264 - DD5.1 - Esubs-MTRAnnanukku Jai (2018) Tamil - 720p - HDRip - x264 - DD5.1 - Esubs-MTRAnnanukku Jai (2018) Tamil - 720p - HDRip - x264 - DD5.1 - Esubs-MTR
SINGLE DIRECT FAST LINKS

http://www.heroupload.us/8466f4eb242df281/Annanukku.Jai.2018.Tamil.Proper.720p.HDRip.x264.DD5.1.ESubs-MTR.mkv



http://filefloater.com/2ARq/Annanukku.Jai.2018.Tamil.Proper.720p.HDRip.x264.DD5.1.ESubs-MTR.mkv



Buy Premium From My Links & Support Me

Tags: Annanukku

Comments:

Dear visitor, you went to the site as unregistered user
We encourage you to create an account or enter the site under your name

Add comment

Name:*
E-Mail:*
Text:
Bold Italic Underline Strike | Align left Center Align right | Insert smilies Insert link URLInsert protected URL Select color | Add Hidden Text Insert Quote Convert selected text from selection to Cyrillic (Russian) alphabet Insert spoiler
Enter the code: *

Create an account

Advertising