» » Goli Soda 2 (2018) Tamil - 1080p - WEB-HD - AVC - DD5.1 - ESub-TMV

Goli Soda 2 (2018) Tamil - 1080p - WEB-HD - AVC - DD5.1 - ESub-TMV

Goli Soda 2 (2018) Tamil - 1080p - WEB-HD - AVC - DD5.1 - ESub-TMV






Format                      : MPEG-4
Format profile              : Base Media
Codec ID                    : isom (isom/iso2/avc1/mp41)
File size                   : 4.09 GiB
Duration                    : 2 h 8 min
Overall bit rate            : 4 562 kb/s
Writing application         : Lavf58.12.100

Video
ID                          : 1
Format                      : AVC
Format/Info                 : Advanced Video Codec
Format profile              : Main@L4
Format settings, CABAC      : Yes
Format settings, RefFrames  : 3 frames
Codec ID                    : avc1
Codec ID/Info               : Advanced Video Coding
Duration                    : 2 h 8 min
Bit rate                    : 4 170 kb/s
Width                       : 1 920 pixels
Height                      : 1 080 pixels
Display aspect ratio        : 16:9
Frame rate mode             : Constant
Frame rate                  : 24.000 FPS
Color space                 : YUV
Chroma subsampling          : 4:2:0
Bit depth                   : 8 bits
Scan type                   : Progressive
Bits/(Pixel*Frame)          : 0.084
Stream size                 : 3.74 GiB (91%)

Audio
ID                          : 2
Format                      : AC-3
Format/Info                 : Audio Coding 3
Format settings, Endianness : Big
Codec ID                    : ac-3
Duration                    : 2 h 8 min
Bit rate mode               : Constant
Bit rate                    : 384 kb/s
Channel(s)                  : 6 channels
Channel positions           : Front: L C R, Side: L R, LFE
Sampling rate               : 48.0 kHz
Frame rate                  : 31.250 FPS (1536 SPF)
Bit depth                   : 16 bits
Compression mode            : Lossy
Stream size                 : 352 MiB (8%)
Service kind                : Complete Main
Default                     : Yes
Alternate group             : 1


Goli Soda 2 (2018) Tamil - 1080p - WEB-HD - AVC - DD5.1 - ESub-TMVGoli Soda 2 (2018) Tamil - 1080p - WEB-HD - AVC - DD5.1 - ESub-TMVGoli Soda 2 (2018) Tamil - 1080p - WEB-HD - AVC - DD5.1 - ESub-TMVGoli Soda 2 (2018) Tamil - 1080p - WEB-HD - AVC - DD5.1 - ESub-TMVGoli Soda 2 (2018) Tamil - 1080p - WEB-HD - AVC - DD5.1 - ESub-TMV

SINGLE DIRECT FAST LINKS
http://www.heroupload.us/9dd84493e8fd0461/Goli.Soda.2.2018.Tamil.WEB-HD.1080p.AVC.DD5.1.384Kbps.ESub-TMV.mp4


http://filefloater.com/2aP5/Goli.Soda.2.2018.Tamil.WEB-HD.1080p.AVC.DD5.1.384Kbps.ESub-TMV.mp4

1GB LINKS

http://www.heroupload.us/1cd9ce9939c7ea67/Goli.Soda.2.2018.Tamil.WEB-HD.1080p.AVC.DD5.1.384Kbps.ESub-TMV.part1.rar
http://www.heroupload.us/b78f5ce8ee7b5dc1/Goli.Soda.2.2018.Tamil.WEB-HD.1080p.AVC.DD5.1.384Kbps.ESub-TMV.part2.rar
http://www.heroupload.us/f45a99df46a7757c/Goli.Soda.2.2018.Tamil.WEB-HD.1080p.AVC.DD5.1.384Kbps.ESub-TMV.part3.rar
http://www.heroupload.us/e63648f48ffb072c/Goli.Soda.2.2018.Tamil.WEB-HD.1080p.AVC.DD5.1.384Kbps.ESub-TMV.part4.rar
http://www.heroupload.us/dc7079d06d7684bc/Goli.Soda.2.2018.Tamil.WEB-HD.1080p.AVC.DD5.1.384Kbps.ESub-TMV.part5.rar
http://www.heroupload.us/56586eaaa7f5639a/Goli.Soda.2.2018.Tamil.WEB-HD.1080p.AVC.DD5.1.384Kbps.ESub-TMV.srt



http://filefloater.com/2AQ0/Goli.Soda.2.2018.Tamil.WEB-HD.1080p.AVC.DD5.1.384Kbps.ESub-TMV.part1.rar
http://filefloater.com/2AQ1/Goli.Soda.2.2018.Tamil.WEB-HD.1080p.AVC.DD5.1.384Kbps.ESub-TMV.part2.rar
http://filefloater.com/2AQ2/Goli.Soda.2.2018.Tamil.WEB-HD.1080p.AVC.DD5.1.384Kbps.ESub-TMV.part3.rar
http://filefloater.com/2AQ3/Goli.Soda.2.2018.Tamil.WEB-HD.1080p.AVC.DD5.1.384Kbps.ESub-TMV.part4.rar
http://filefloater.com/2AQ4/Goli.Soda.2.2018.Tamil.WEB-HD.1080p.AVC.DD5.1.384Kbps.ESub-TMV.part5.rar
http://filefloater.com/2AQ5/Goli.Soda.2.2018.Tamil.WEB-HD.1080p.AVC.DD5.1.384Kbps.ESub-TMV.srt



Buy Premium From My Links & Support Me

Tags: Goli

Comments:

Dear visitor, you went to the site as unregistered user
We encourage you to create an account or enter the site under your name

Add comment

Name:*
E-Mail:*
Text:
Bold Italic Underline Strike | Align left Center Align right | Insert smilies Insert link URLInsert protected URL Select color | Add Hidden Text Insert Quote Convert selected text from selection to Cyrillic (Russian) alphabet Insert spoiler
Enter the code: *

Create an account

Advertising