» » English Padam (2017) Tamil - 720p - WEB-HD - AVC - AAC - ESubs-MTR

English Padam (2017) Tamil - 720p - WEB-HD - AVC - AAC - ESubs-MTR

English Padam (2017) Tamil - 720p - WEB-HD - AVC - AAC - ESubs-MTR





General
Format                      : Matroska
Format version              : Version 4 / Version 2
File size                   : 1.80 GiB
Duration                    : 1 h 43 min
Overall bit rate            : 2 474 kb/s
Encoded date                : UTC 2017-12-03 14:22:41
Writing application         : mkvmerge v7.8.0 ('River Man') 64bit built on Mar 27 2015 16:31:37
Writing library             : libebml v1.3.1 + libmatroska v1.4.2

Video
ID                          : 1
Format                      : AVC
Format/Info                 : Advanced Video Codec
Format profile              : High@L3.2
Format settings, CABAC      : Yes
Format settings, RefFrames  : 4 frames
Codec ID                    : V_MPEG4/ISO/AVC
Duration                    : 1 h 43 min
Bit rate                    : 2 279 kb/s
Width                       : 1 280 pixels
Height                      : 720 pixels
Display aspect ratio        : 16:9
Frame rate mode             : Constant
Frame rate                  : 59.940 (60000/1001) FPS
Color space                 : YUV
Chroma subsampling          : 4:2:0
Bit depth                   : 8 bits
Scan type                   : Progressive
Bits/(Pixel*Frame)          : 0.041
Stream size                 : 1.65 GiB (92%)
Writing library             : x264 core 148 r2744 b97ae06
Encoding settings           : cabac=1 / ref=3 / deblock=1:0:0 / analyse=0x3:0x113 / me=hex / subme=7 / psy=1 / psy_rd=1.00:0.00 / mixed_ref=1 / me_range=16 / chroma_me=1 / trellis=1 / 8x8dct=1 / cqm=0 / deadzone=21,11 / fast_pskip=1 / chroma_qp_offset=-2 / threads=22 / lookahead_threads=3 / sliced_threads=0 / nr=0 / decimate=1 / interlaced=0 / bluray_compat=0 / constrained_intra=0 / bframes=3 / b_pyramid=2 / b_adapt=1 / b_bias=0 / direct=1 / weightb=1 / open_gop=0 / weightp=2 / keyint=599 / keyint_min=59 / scenecut=40 / intra_refresh=0 / rc_lookahead=40 / rc=2pass / mbtree=1 / bitrate=2279 / ratetol=1.0 / qcomp=0.60 / qpmin=0 / qpmax=69 / qpstep=4 / cplxblur=20.0 / qblur=0.5 / ip_ratio=1.40 / aq=1:1.00
Language                    : English
Default                     : Yes
Forced                      : No

Audio
ID                          : 2
Format                      : MPEG Audio
Format version              : Version 1
Format profile              : Layer 3
Mode                        : Joint stereo
Codec ID                    : A_MPEG/L3
Codec ID/Hint               : MP3
Duration                    : 1 h 43 min
Bit rate mode               : Constant
Bit rate                    : 192 kb/s
Channel(s)                  : 2 channels
Sampling rate               : 48.0 kHz
Frame rate                  : 41.667 FPS (1152 SPF)
Compression mode            : Lossy
Stream size                 : 143 MiB (8%)
Language                    : English
Default                     : Yes
Forced                      : No



English Padam (2017) Tamil - 720p - WEB-HD - AVC - AAC - ESubs-MTREnglish Padam (2017) Tamil - 720p - WEB-HD - AVC - AAC - ESubs-MTREnglish Padam (2017) Tamil - 720p - WEB-HD - AVC - AAC - ESubs-MTREnglish Padam (2017) Tamil - 720p - WEB-HD - AVC - AAC - ESubs-MTR

SINGLE DIRECT FAST LINKS


http://www.heroupload.com/de11bcde0a998c85/English.Padam.2017.720p.HD.AVC.AAC.ESubs.Tamil-MTR.mkv



Tags: English

Comments:

Dear visitor, you went to the site as unregistered user
We encourage you to create an account or enter the site under your name

Add comment

Name:*
E-Mail:*
Text:
Bold Italic Underline Strike | Align left Center Align right | Insert smilies Insert link URLInsert protected URL Select color | Add Hidden Text Insert Quote Convert selected text from selection to Cyrillic (Russian) alphabet Insert spoiler
Enter the code: *

Create an account

Who's Online?

Module online =)

Advertising