» » Dushman (2017) Punjabi - 1080p - WEB-HD - AVC - AAC - Team Jio Exclusive

Dushman (2017) Punjabi - 1080p - WEB-HD - AVC - AAC - Team Jio Exclusive

Dushman (2017) Punjabi - 1080p - WEB-HD - AVC - AAC - Team Jio Exclusive

Format                      : MPEG-4
Format profile              : Base Media
Codec ID                    : isom (isom/iso2/avc1/mp41)
File size                   : 6.58 GiB
Duration                    : 2 h 21 min
Overall bit rate mode       : Variable
Overall bit rate            : 6 674 kb/s
Writing application         : Lavf57.84.100

Video
ID                          : 1
Format                      : AVC
Format/Info                 : Advanced Video Codec
Format profile              : High@L4
Format settings             : CABAC / 2 Ref Frames
Format settings, CABAC      : Yes
Format settings, ReFrames   : 2 frames
Codec ID                    : avc1
Codec ID/Info               : Advanced Video Coding
Duration                    : 2 h 21 min
Bit rate mode               : Variable
Bit rate                    : 6 531 kb/s
Maximum bit rate            : 16.0 Mb/s
Width                       : 1 920 pixels
Height                      : 1 080 pixels
Display aspect ratio        : 16:9
Frame rate mode             : Constant
Frame rate                  : 30.000 FPS
Color space                 : YUV
Chroma subsampling          : 4:2:0
Bit depth                   : 8 bits
Scan type                   : Progressive
Bits/(Pixel*Frame)          : 0.105
Stream size                 : 6.44 GiB (98%)
Color range                 : Full
Matrix coefficients         : BT.709

Audio
ID                          : 2
Format                      : AAC
Format/Info                 : Advanced Audio Codec
Format profile              : LC
Codec ID                    : mp4a-40-2
Duration                    : 2 h 21 min
Bit rate mode               : Constant
Bit rate                    : 132 kb/s
Channel(s)                  : 2 channels
Channel positions           : Front: L R
Sampling rate               : 44.1 kHz
Frame rate                  : 43.066 FPS (1024 SPF)
Compression mode            : Lossy
Stream size                 : 133 MiB (2%)
Default                     : Yes
Alternate group             : 1


Dushman (2017) Punjabi - 1080p - WEB-HD - AVC - AAC - Team Jio ExclusiveDushman (2017) Punjabi - 1080p - WEB-HD - AVC - AAC - Team Jio ExclusiveDushman (2017) Punjabi - 1080p - WEB-HD - AVC - AAC - Team Jio ExclusiveDushman (2017) Punjabi - 1080p - WEB-HD - AVC - AAC - Team Jio ExclusiveDushman (2017) Punjabi - 1080p - WEB-HD - AVC - AAC - Team Jio ExclusiveDushman (2017) Punjabi - 1080p - WEB-HD - AVC - AAC - Team Jio ExclusiveDushman (2017) Punjabi - 1080p - WEB-HD - AVC - AAC - Team Jio ExclusiveDushman (2017) Punjabi - 1080p - WEB-HD - AVC - AAC - Team Jio ExclusiveDushman (2017) Punjabi - 1080p - WEB-HD - AVC - AAC - Team Jio ExclusiveDushman (2017) Punjabi - 1080p - WEB-HD - AVC - AAC - Team Jio ExclusiveDushman (2017) Punjabi - 1080p - WEB-HD - AVC - AAC - Team Jio Exclusive


SINGLE DIRECT FAST LINKS

http://www.heroupload.com/a9c1c0a53e97ac43/Dushman.2017.Punjabi.1080p.WEB-HD.AVC.AAC.2.0-Team.Jio-Exclusive.mp4


1GB LINKS


http://www.heroupload.com/46eb4e19aebfa35f/Dushman.2017.Punjabi.1080p.WEB-HD.AVC.AAC.2.0-Team.Jio-Exclusive.part1.rar
http://www.heroupload.com/8a666f9565570f14/Dushman.2017.Punjabi.1080p.WEB-HD.AVC.AAC.2.0-Team.Jio-Exclusive.part2.rar
http://www.heroupload.com/114c04d25a7e2c60/Dushman.2017.Punjabi.1080p.WEB-HD.AVC.AAC.2.0-Team.Jio-Exclusive.part3.rar
http://www.heroupload.com/01ca551369105eda/Dushman.2017.Punjabi.1080p.WEB-HD.AVC.AAC.2.0-Team.Jio-Exclusive.part4.rar
http://www.heroupload.com/91b32bbc226a495d/Dushman.2017.Punjabi.1080p.WEB-HD.AVC.AAC.2.0-Team.Jio-Exclusive.part5.rar
http://www.heroupload.com/667922636b84e269/Dushman.2017.Punjabi.1080p.WEB-HD.AVC.AAC.2.0-Team.Jio-Exclusive.part6.rar
http://www.heroupload.com/e7f0dce0c95de1db/Dushman.2017.Punjabi.1080p.WEB-HD.AVC.AAC.2.0-Team.Jio-Exclusive.part7.rar





Tags: Dushman

Comments:

Dear visitor, you went to the site as unregistered user
We encourage you to create an account or enter the site under your name

Add comment

Name:*
E-Mail:*
Text:
Bold Italic Underline Strike | Align left Center Align right | Insert smilies Insert link URLInsert protected URL Select color | Add Hidden Text Insert Quote Convert selected text from selection to Cyrillic (Russian) alphabet Insert spoiler
Enter the code: *

Create an account

Partner Site

Advertising