» » Thrissivaperoor Kliptham (2017) Malayalam - 720p - HDTV - UNTOUCHED - AVC - AAC-WR

Thrissivaperoor Kliptham (2017) Malayalam - 720p - HDTV - UNTOUCHED - AVC - AAC-WR

Thrissivaperoor Kliptham (2017) Malayalam - 720p - HDTV - UNTOUCHED - AVC - AAC-WR






General
Format                      : MPEG-4
Format profile              : Base Media
Codec ID                    : isom (isom/iso2/avc1/mp41)
File size                   : 2.46 GiB
Duration                    : 2 h 14 min
Overall bit rate mode       : Constant
Overall bit rate            : 2 618 kb/s
Writing application         : Lavf55.19.104

Video
ID                          : 1
Format                      : AVC
Format/Info                 : Advanced Video Codec
Format profile              : Baseline@L3.1
Format settings, CABAC      : No
Format settings, RefFrames  : 1 frame
Codec ID                    : avc1
Codec ID/Info               : Advanced Video Coding
Duration                    : 2 h 14 min
Bit rate mode               : Constant
Bit rate                    : 2 560 kb/s
Width                       : 1 280 pixels
Height                      : 720 pixels
Display aspect ratio        : 16:9
Frame rate mode             : Constant
Frame rate                  : 25.000 FPS
Color space                 : YUV
Chroma subsampling          : 4:2:0
Bit depth                   : 8 bits
Scan type                   : Progressive
Bits/(Pixel*Frame)          : 0.111
Stream size                 : 2.40 GiB (97%)

Audio
ID                          : 2
Format                      : AAC
Format/Info                 : Advanced Audio Codec
Format profile              : LC
Codec ID                    : 40
Duration                    : 2 h 14 min
Bit rate mode               : Constant
Bit rate                    : 62.2 kb/s
Channel(s)                  : 2 channels
Channel positions           : Front: L R
Sampling rate               : 32.0 kHz
Frame rate                  : 31.250 FPS (1024 SPF)
Compression mode            : Lossy
Stream size                 : 60.0 MiB (2%)
Default                     : Yes
Alternate group             : 1


Thrissivaperoor Kliptham (2017) Malayalam - 720p - HDTV - UNTOUCHED - AVC - AAC-WRThrissivaperoor Kliptham (2017) Malayalam - 720p - HDTV - UNTOUCHED - AVC - AAC-WRThrissivaperoor Kliptham (2017) Malayalam - 720p - HDTV - UNTOUCHED - AVC - AAC-WRThrissivaperoor Kliptham (2017) Malayalam - 720p - HDTV - UNTOUCHED - AVC - AAC-WR


SINGLE DIRECT FAST LINKS

http://www.heroupload.com/3bd6ee80c47be338/Thrissivaperoor.Kliptham.2017.Malayalam.HDTV.720p.UNTOUCHED.AVC.AAC-WarezRock.mp4


http://filefloater.com/902/Thrissivaperoor.Kliptham.2017.Malayalam.HDTV.720p.UNTOUCHED.AVC.AAC-WarezRock.mp4

700MB LINKS

http://www.heroupload.com/630667ba59c39b8f/Thrissivaperoor.Kliptham.2017.Malayalam.HDTV.720p.UNTOUCHED.AVC.AAC-WarezRock.part1.rar
http://www.heroupload.com/65e934958b7bc9a5/Thrissivaperoor.Kliptham.2017.Malayalam.HDTV.720p.UNTOUCHED.AVC.AAC-WarezRock.part2.rar
http://www.heroupload.com/fa2808f444bcfade/Thrissivaperoor.Kliptham.2017.Malayalam.HDTV.720p.UNTOUCHED.AVC.AAC-WarezRock.part3.rar
http://www.heroupload.com/13b7845e914bda4a/Thrissivaperoor.Kliptham.2017.Malayalam.HDTV.720p.UNTOUCHED.AVC.AAC-WarezRock.part4.rar



http://filefloater.com/903/Thrissivaperoor.Kliptham.2017.Malayalam.HDTV.720p.UNTOUCHED.AVC.AAC-WarezRock.part1.rar
http://filefloater.com/904/Thrissivaperoor.Kliptham.2017.Malayalam.HDTV.720p.UNTOUCHED.AVC.AAC-WarezRock.part2.rar
http://filefloater.com/905/Thrissivaperoor.Kliptham.2017.Malayalam.HDTV.720p.UNTOUCHED.AVC.AAC-WarezRock.part3.rar
http://filefloater.com/906/Thrissivaperoor.Kliptham.2017.Malayalam.HDTV.720p.UNTOUCHED.AVC.AAC-WarezRock.part4.rar


Comments:

Dear visitor, you went to the site as unregistered user
We encourage you to create an account or enter the site under your name

Add comment

Name:*
E-Mail:*
Text:
Bold Italic Underline Strike | Align left Center Align right | Insert smilies Insert link URLInsert protected URL Select color | Add Hidden Text Insert Quote Convert selected text from selection to Cyrillic (Russian) alphabet Insert spoiler
Enter the code: *

Create an account

Partner Site

Advertising