» » Richie (2017) Malayalam - 1080p - HDRip - x264 - MP3 - Esubs-MTR

Richie (2017) Malayalam - 1080p - HDRip - x264 - MP3 - Esubs-MTR

Richie (2017) Malayalam - 1080p - HDRip - x264 - MP3 - Esubs-MTR






General
Format                      : Matroska
Format version              : Version 4 / Version 2
File size                   : 3.10 GiB
Duration                    : 1 h 44 min
Overall bit rate            : 4 250 kb/s
Encoded date                : UTC 2018-01-07 15:27:18
Writing application         : mkvmerge v7.8.0 ('River Man') 64bit built on Mar 27 2015 16:31:37
Writing library             : libebml v1.3.1 + libmatroska v1.4.2

Video
ID                          : 1
Format                      : AVC
Format/Info                 : Advanced Video Codec
Format profile              : High@L4
Format settings, CABAC      : Yes
Format settings, RefFrames  : 4 frames
Format settings, GOP        : M=3, N=25
Codec ID                    : V_MPEG4/ISO/AVC
Duration                    : 1 h 44 min
Bit rate                    : 4 089 kb/s
Width                       : 1 920 pixels
Height                      : 1 080 pixels
Display aspect ratio        : 16:9
Frame rate mode             : Constant
Frame rate                  : 25.000 FPS
Color space                 : YUV
Chroma subsampling          : 4:2:0
Bit depth                   : 8 bits
Scan type                   : Progressive
Bits/(Pixel*Frame)          : 0.079
Stream size                 : 2.98 GiB (96%)
Writing library             : Zencoder Video Encoding System
Language                    : English
Default                     : Yes
Forced                      : No
Color range                 : Limited
Color primaries             : BT.709
Transfer characteristics    : BT.709
Matrix coefficients         : BT.709

Audio
ID                          : 2
Format                      : AAC
Format/Info                 : Advanced Audio Codec
Format profile              : LC
Codec ID                    : A_AAC
Duration                    : 1 h 44 min
Bit rate                    : 158 kb/s
Channel(s)                  : 6 channels
Channel positions           : Front: L C R, Side: L R, LFE
Sampling rate               : 44.1 kHz
Frame rate                  : 43.066 FPS (1024 SPF)
Compression mode            : Lossy
Stream size                 : 118 MiB (4%)
Default                     : Yes
Forced                      : No

Text
ID                          : 3
Format                      : UTF-8
Codec ID                    : S_TEXT/UTF8
Codec ID/Info               : UTF-8 Plain Text
Duration                    : 1 h 41 min
Bit rate                    : 54 b/s
Count of elements           : 1327
Stream size                 : 40.6 KiB (0%)
Default                     : Yes
Forced                      : No



Richie (2017) Malayalam - 1080p - HDRip - x264 - MP3 - Esubs-MTRRichie (2017) Malayalam - 1080p - HDRip - x264 - MP3 - Esubs-MTRRichie (2017) Malayalam - 1080p - HDRip - x264 - MP3 - Esubs-MTRRichie (2017) Malayalam - 1080p - HDRip - x264 - MP3 - Esubs-MTR



SINGLE DIRECT FAST LINKS
https://www.heroupload.com/02f2bc864fcbaf16/Richie.2017.Malayalam.1080p.HD.5.1.x264.ESubs-MTR.mkv


http://filefloater.com/4ak/Richie.2017.Malayalam.1080p.HD.5.1.x264.ESubs-MTR.mkv

700MB LINKS

https://www.heroupload.com/50170ebaf6b8a4e4/Richie.2017.Malayalam.1080p.HD.5.1.x264.ESubs-MTR.part1.rar
https://www.heroupload.com/ad9373d09995ea89/Richie.2017.Malayalam.1080p.HD.5.1.x264.ESubs-MTR.part2.rar
https://www.heroupload.com/0b4ca090efbff1e2/Richie.2017.Malayalam.1080p.HD.5.1.x264.ESubs-MTR.part3.rar
https://www.heroupload.com/80f9e053759affff/Richie.2017.Malayalam.1080p.HD.5.1.x264.ESubs-MTR.part4.rar
https://www.heroupload.com/c76836ba136bca40/Richie.2017.Malayalam.1080p.HD.5.1.x264.ESubs-MTR.part5.rar



http://filefloater.com/4ar/Richie.2017.Malayalam.1080p.HD.5.1.x264.ESubs-MTR.part1.rar
http://filefloater.com/4as/Richie.2017.Malayalam.1080p.HD.5.1.x264.ESubs-MTR.part2.rar
http://filefloater.com/4at/Richie.2017.Malayalam.1080p.HD.5.1.x264.ESubs-MTR.part3.rar
http://filefloater.com/4au/Richie.2017.Malayalam.1080p.HD.5.1.x264.ESubs-MTR.part4.rar
http://filefloater.com/4av/Richie.2017.Malayalam.1080p.HD.5.1.x264.ESubs-MTR.part5.rar



Tags: Richie

Comments:

Dear visitor, you went to the site as unregistered user
We encourage you to create an account or enter the site under your name

Add comment

Name:*
E-Mail:*
Text:
Bold Italic Underline Strike | Align left Center Align right | Insert smilies Insert link URLInsert protected URL Select color | Add Hidden Text Insert Quote Convert selected text from selection to Cyrillic (Russian) alphabet Insert spoiler
Enter the code: *

Create an account

Partner Site

Advertising