» » Gone (2012) 720p BluRay x264 Esubs [Dual Audio] [Hindi+English] Maher

Gone (2012) 720p BluRay x264 Esubs [Dual Audio] [Hindi+English] Maher

Gone (2012) 720p BluRay x264 Esubs [Dual Audio] [Hindi+English] Maher






Format                                   : Matroska
Format version                           : Version 4 / Version 2
File size                                : 778 MiB
Duration                                 : 1 h 34 min
Overall bit rate                         : 1 147 kb/s
Encoded date                             : UTC 2018-07-21 10:10:21
Writing application                      : mkvmerge v9.7.1 ('Pandemonium') 64bit
Writing library                          : libebml v1.3.4 + libmatroska v1.4.5

Video
ID                                       : 1
Format                                   : AVC
Format/Info                              : Advanced Video Codec
Format profile                           : High@L4
Format settings                          : CABAC / 5 Ref Frames
Format settings, CABAC                   : Yes
Format settings, RefFrames               : 5 frames
Codec ID                                 : V_MPEG4/ISO/AVC
Duration                                 : 1 h 34 min
Bit rate                                 : 861 kb/s
Width                                    : 1 280 pixels
Height                                   : 528 pixels
Display aspect ratio                     : 2.40:1
Frame rate mode                          : Constant
Frame rate                               : 23.976 (24000/1001) FPS
Color space                              : YUV
Chroma subsampling                       : 4:2:0
Bit depth                                : 8 bits
Scan type                                : Progressive
Bits/(Pixel*Frame)                       : 0.053
Stream size                              : 584 MiB (75%)
Writing library                          : x264 core 120 r2164 da19765
Encoding settings                        : cabac=1 / ref=5 / deblock=1:-2:-1 / analyse=0x3:0x133 / me=umh / subme=9 / psy=1 / psy_rd=1.00:0.00 / mixed_ref=1 / me_range=16 / chroma_me=1 / trellis=2 / 8x8dct=1 / cqm=0 / deadzone=21,11 / fast_pskip=1 / chroma_qp_offset=-2 / threads=12 / sliced_threads=0 / nr=0 / decimate=1 / interlaced=0 / bluray_compat=0 / constrained_intra=0 / bframes=3 / b_pyramid=2 / b_adapt=2 / b_bias=0 / direct=3 / weightb=1 / open_gop=0 / weightp=2 / keyint=240 / keyint_min=23 / scenecut=40 / intra_refresh=0 / rc_lookahead=60 / rc=2pass / mbtree=1 / bitrate=861 / ratetol=1.0 / qcomp=0.60 / qpmin=10 / qpmax=51 / qpstep=4 / cplxblur=20.0 / qblur=0.5 / ip_ratio=1.40 / aq=1:1.00
Default                                  : Yes
Forced                                   : No

Audio #1
ID                                       : 2
Format                                   : AAC
Format/Info                              : Advanced Audio Codec
Format profile                           : LC
Codec ID                                 : A_AAC-2
Duration                                 : 1 h 34 min
Bit rate                                 : 94.0 kb/s
Channel(s)                               : 2 channels
Channel positions                        : Front: L R
Sampling rate                            : 44.1 kHz
Frame rate                               : 43.066 FPS (1024 SPF)
Compression mode                         : Lossy
Stream size                              : 63.8 MiB (8%)
Default                                  : No
Forced                                   : No

Audio #2
ID                                       : 3
Format                                   : AAC
Format/Info                              : Advanced Audio Codec
Format profile                           : LC
Codec ID                                 : A_AAC-2
Duration                                 : 1 h 34 min
Bit rate                                 : 192 kb/s
Channel(s)                               : 2 channels
Channel positions                        : Front: L R
Sampling rate                            : 48.0 kHz
Frame rate                               : 46.875 FPS (1024 SPF)
Compression mode                         : Lossy
Stream size                              : 129 MiB (17%)
Title                                    : by Maher
Language                                 : Hindi
Default                                  : Yes
Forced                                   : Yes

Text
ID                                       : 4
Format                                   : UTF-8
Codec ID                                 : S_TEXT/UTF8
Codec ID/Info                            : UTF-8 Plain Text
Duration                                 : 1 h 29 min
Bit rate                                 : 56 b/s
Count of elements                        : 963
Stream size                              : 37.0 KiB (0%)
Default                                  : Yes
Forced                                   : No






Gone (2012) 720p BluRay x264 Esubs [Dual Audio] [Hindi+English] Maher
Gone (2012) 720p BluRay x264 Esubs [Dual Audio] [Hindi+English] Maher
Gone (2012) 720p BluRay x264 Esubs [Dual Audio] [Hindi+English] Maher
Gone (2012) 720p BluRay x264 Esubs [Dual Audio] [Hindi+English] Maher
Gone (2012) 720p BluRay x264 Esubs [Dual Audio] [Hindi+English] Maher

SINGLE DIRECT FAST LINKS
http://www.heroupload.us/32ecc5c933ff1217/Gone.2012.x264.720p.Dual.Audio.Hindi+English.BluRay.Esubs.Exclusive-Maher.mkv



http://filefloater.com/29Pp/Gone.2012.x264.720p.Dual.Audio.Hindi+English.BluRay.Esubs.Exclusive-Maher.mkv



Buy Premium From My Links & Support Me

Tags: Gone

Comments:

Dear visitor, you went to the site as unregistered user
We encourage you to create an account or enter the site under your name

Add comment

Name:*
E-Mail:*
Text:
Bold Italic Underline Strike | Align left Center Align right | Insert smilies Insert link URLInsert protected URL Select color | Add Hidden Text Insert Quote Convert selected text from selection to Cyrillic (Russian) alphabet Insert spoiler
Enter the code: *

Create an account

Advertising