» » Game of Thrones S01E06 1080p 10bit BluRay x265 HEVC [Dual-Audio][Hindi English] KMHD

Game of Thrones S01E06 1080p 10bit BluRay x265 HEVC [Dual-Audio][Hindi English] KMHD

Game of Thrones S01E06 1080p 10bit BluRay x265 HEVC [Dual-Audio][Hindi English] KMHD




General
Format                      : Matroska
Format version              : Version 4 / Version 2
File size                   : 851 MiB
Duration                    : 52 min 36 s
Overall bit rate            : 2 261 kb/s
Encoded date                : UTC 2018-07-01 08:08:52
Writing application         : mkvmerge v20.0.0 ('I Am The Sun') 64-bit
Writing library             : libebml v1.3.5 + libmatroska v1.4.8

Video
ID                          : 1
Format                      : HEVC
Format/Info                 : High Efficiency Video Coding
Format profile              : Main 10@L4@Main
Codec ID                    : V_MPEGH/ISO/HEVC
Duration                    : 52 min 36 s
Bit rate                    : 1 852 kb/s
Width                       : 1 920 pixels
Height                      : 1 080 pixels
Display aspect ratio        : 16:9
Frame rate mode             : Constant
Frame rate                  : 23.976 (24000/1001) FPS
Color space                 : YUV
Chroma subsampling          : 4:2:0
Bit depth                   : 10 bits
Bits/(Pixel*Frame)          : 0.037
Stream size                 : 697 MiB (82%)
Default                     : Yes
Forced                      : No

Audio #1
ID                          : 2
Format                      : AC-3
Format/Info                 : Audio Coding 3
Format settings, Endianness : Big
Codec ID                    : A_AC3
Duration                    : 52 min 36 s
Bit rate mode               : Constant
Bit rate                    : 192 kb/s
Channel(s)                  : 6 channels
Channel positions           : Front: L C R, Side: L R, LFE
Sampling rate               : 48.0 kHz
Frame rate                  : 31.250 FPS (1536 SPF)
Bit depth                   : 16 bits
Compression mode            : Lossy
Stream size                 : 72.3 MiB (8%)
Language                    : Hindi
Service kind                : Complete Main
Default                     : Yes
Forced                      : Yes

Audio #2
ID                          : 3
Format                      : AAC
Format/Info                 : Advanced Audio Codec
Format profile              : HE-AAC / LC
Codec ID                    : A_AAC
Duration                    : 52 min 36 s
Bit rate                    : 214 kb/s
Channel(s)                  : 6 channels
Channel(s)_Original         : 19 channels
Channel positions           : Front: 13, Side: L R, Back: L R, LFE= 2
Sampling rate               : 48.0 kHz / 24.0 kHz
Frame rate                  : 23.438 FPS (1024 SPF)
Compression mode            : Lossy
Delay relative to video     : 23 ms
Stream size                 : 80.6 MiB (9%)
Language                    : English
Default                     : No
Forced                      : No

Text
ID                          : 4
Format                      : UTF-8
Codec ID                    : S_TEXT/UTF8
Codec ID/Info               : UTF-8 Plain Text
Duration                    : 51 min 29 s
Bit rate                    : 49 b/s
Count of elements           : 581
Stream size                 : 18.9 KiB (0%)
Language                    : English
Default                     : Yes
Forced                      : Yes




SINGLE DIRECT FAST LINKS
http://www.heroupload.us/878e96942d3940c1/Game.of.Thrones.S01E06.A.Golden.Crown.1080p.10bit.BluRay.Hindi.Eng.6CH.x265.HEVC-KMHD.mkv


http://filefloater.com/Tyc/Game.of.Thrones.S01E06.A.Golden.Crown.1080p.10bit.BluRay.Hindi.Eng.6CH.x265.HEVC-KMHD.mkv


Tags: Game

Comments:

Dear visitor, you went to the site as unregistered user
We encourage you to create an account or enter the site under your name

Add comment

Name:*
E-Mail:*
Text:
Bold Italic Underline Strike | Align left Center Align right | Insert smilies Insert link URLInsert protected URL Select color | Add Hidden Text Insert Quote Convert selected text from selection to Cyrillic (Russian) alphabet Insert spoiler
Enter the code: *

Create an account

Advertising