» » Black Panther (2018) BluRay - 720p - x264 - ESub [Dual Audio][Hindi-Clear+English]

Black Panther (2018) BluRay - 720p - x264 - ESub [Dual Audio][Hindi-Clear+English]

Black Panther (2018) BluRay - 720p - x264 - ESub [Dual Audio][Hindi-Clear+English]





General
Format                      : Matroska
Format version              : Version 4 / Version 2
File size                   : 1.13 GiB
Duration                    : 2 h 14 min
Overall bit rate mode       : Variable
Overall bit rate            : 1 198 kb/s
Encoded date                : UTC 2018-05-02 03:48:02
Writing application         : mkvmerge v7.1.0 ('Good Love') 32bit built on Jul 27 2014 12:59:18
Writing library             : libebml v1.3.0 + libmatroska v1.4.1

Video
ID                          : 1
Format                      : AVC
Format/Info                 : Advanced Video Codec
Format profile              : High@L4.1
Format settings, CABAC      : Yes
Format settings, RefFrames  : 4 frames
Codec ID                    : V_MPEG4/ISO/AVC
Duration                    : 2 h 14 min
Bit rate                    : 1 000 kb/s
Width                       : 1 280 pixels
Height                      : 536 pixels
Display aspect ratio        : 2.40:1
Frame rate mode             : Constant
Frame rate                  : 23.976 (24000/1001) FPS
Color space                 : YUV
Chroma subsampling          : 4:2:0
Bit depth                   : 8 bits
Scan type                   : Progressive
Bits/(Pixel*Frame)          : 0.061
Stream size                 : 962 MiB (83%)
Writing library             : x264 core 142 r2479 dd79a61
Encoding settings           : cabac=1 / ref=3 / deblock=1:0:0 / analyse=0x3:0x113 / me=hex / subme=7 / psy=1 / psy_rd=1.00:0.00 / mixed_ref=1 / me_range=16 / chroma_me=1 / trellis=1 / 8x8dct=1 / cqm=0 / deadzone=21,11 / fast_pskip=1 / chroma_qp_offset=-2 / threads=12 / lookahead_threads=2 / sliced_threads=0 / nr=0 / decimate=1 / interlaced=0 / bluray_compat=0 / constrained_intra=0 / bframes=3 / b_pyramid=2 / b_adapt=1 / b_bias=0 / direct=1 / weightb=1 / open_gop=0 / weightp=2 / keyint=240 / keyint_min=24 / scenecut=40 / intra_refresh=0 / rc_lookahead=40 / rc=2pass / mbtree=1 / bitrate=1000 / ratetol=1.0 / qcomp=0.60 / qpmin=0 / qpmax=69 / qpstep=4 / cplxblur=20.0 / qblur=0.5 / vbv_maxrate=62500 / vbv_bufsize=78125 / nal_hrd=none / filler=0 / ip_ratio=1.40 / aq=1:1.00
Language                    : English
Default                     : Yes
Forced                      : No
Color range                 : Limited
Color primaries             : BT.709
Transfer characteristics    : BT.709
Matrix coefficients         : BT.709

Audio #1
ID                          : 2
Format                      : MPEG Audio
Format version              : Version 1
Format profile              : Layer 3
Mode                        : Joint stereo
Mode extension              : MS Stereo
Codec ID                    : A_MPEG/L3
Codec ID/Hint               : MP3
Duration                    : 2 h 14 min
Bit rate mode               : Variable
Bit rate                    : 96.0 kb/s
Channel(s)                  : 2 channels
Sampling rate               : 44.1 kHz
Frame rate                  : 38.281 FPS (1152 SPF)
Compression mode            : Lossy
Delay relative to video     : -105 ms
Stream size                 : 95.9 MiB (8%)
Writing library             : LAME3.99r
Encoding settings           : -m j -V 4 -q 3 -lowpass 15.1 --abr 96
Language                    : Hindi
Default                     : Yes
Forced                      : No

Audio #2
ID                          : 3
Format                      : AAC
Format/Info                 : Advanced Audio Codec
Format profile              : HE-AAC / LC
Codec ID                    : A_AAC
Duration                    : 2 h 14 min
Bit rate                    : 96.0 kb/s
Channel(s)                  : 2 channels
Channel positions           : Front: L R
Sampling rate               : 48.0 kHz / 24.0 kHz
Frame rate                  : 23.438 FPS (1024 SPF)
Compression mode            : Lossy
Delay relative to video     : -105 ms
Stream size                 : 92.4 MiB (8%)
Language                    : English
Default                     : No
Forced                      : No

Text
ID                          : 4
Format                      : UTF-8
Codec ID                    : S_TEXT/UTF8
Codec ID/Info               : UTF-8 Plain Text
Duration                    : 2 h 14 min
Bit rate                    : 49 b/s
Count of elements           : 1835
Stream size                 : 48.3 KiB (0%)
Language                    : English
Default                     : Yes
Forced                      : No




Black Panther (2018) BluRay - 720p - x264 - ESub [Dual Audio][Hindi-Clear+English]Black Panther (2018) BluRay - 720p - x264 - ESub [Dual Audio][Hindi-Clear+English]Black Panther (2018) BluRay - 720p - x264 - ESub [Dual Audio][Hindi-Clear+English]Black Panther (2018) BluRay - 720p - x264 - ESub [Dual Audio][Hindi-Clear+English]Black Panther (2018) BluRay - 720p - x264 - ESub [Dual Audio][Hindi-Clear+English]Black Panther (2018) BluRay - 720p - x264 - ESub [Dual Audio][Hindi-Clear+English]

SINGLE DIRECT FAST LINKS

http://www.heroupload.us/99cb71bab9519485/Black.Panther.2018.BluRay.720p.Hindi.Clear+English.ESub-Exclusive.mkv



http://filefloater.com/SUy/Black.Panther.2018.BluRay.720p.Hindi.Clear+English.ESub-Exclusive.mkv





Tags: Black

Comments:

Dear visitor, you went to the site as unregistered user
We encourage you to create an account or enter the site under your name

tadalafil 10 mg

11 May 2018 16:36

buying cialis overnight <a href="http://cialisonl.com/#cialis-without-a-doctors-prescription">
cialis lowest price</a>
cialis mit grapefruitsaft cialis purchasing
sildenafil buy uk <a href="http://rldta.com/ ">Viagra tablets</a>
online pharmacy viagra generic Generic for viagra
where cheapest cialis http://cialisonl.com/#cialis-generique
low price viagra pills http://viagraessale.com/#viagra-20-mg-best-price

generic cialis

29 May 2018 18:30

cialis cipla best buy <a href="http://cialisky.com/">tadalafil 10 mg</a>
trusted tabled cialis softabs online cialis
buy cialis cheap 10 mg http://cialisky.com/

Add comment

Name:*
E-Mail:*
Text:
Bold Italic Underline Strike | Align left Center Align right | Insert smilies Insert link URLInsert protected URL Select color | Add Hidden Text Insert Quote Convert selected text from selection to Cyrillic (Russian) alphabet Insert spoiler
Enter the code: *

Create an account

Advertising