» » Sin City A Dame to Kill For (2014) 720p BluRay x264 Esubs [Dual Audio][Hindi+English]

Sin City A Dame to Kill For (2014) 720p BluRay x264 Esubs [Dual Audio][Hindi+English]

Sin City A Dame to Kill For (2014) 720p BluRay x264 Esubs [Dual Audio][Hindi+English]







Format : Matroska
Format version : Version 4 / Version 2
File size : 1.06 GiB
Duration : 1 h 42 min
Overall bit rate : 1 490 kb/s
Encoded date : UTC 2018-03-25 13:26:31
Writing application : mkvmerge v9.7.1 ('Pandemonium') 64bit
Writing library : libebml v1.3.4 + libmatroska v1.4.5
Cover : Yes
Attachments : cover.jpg

Video
ID : 1
Format : AVC
Format/Info : Advanced Video Codec
Format profile : High@L4
Format settings : CABAC / 5 Ref Frames
Format settings, CABAC : Yes
Format settings, RefFrames : 5 frames
Codec ID : V_MPEG4/ISO/AVC
Duration : 1 h 42 min
Bit rate : 1 207 kb/s
Width : 1 280 pixels
Height : 690 pixels
Display aspect ratio : 1.85:1
Frame rate mode : Constant
Frame rate : 23.976 (24000/1001) FPS
Color space : YUV
Chroma subsampling : 4:2:0
Bit depth : 8 bits
Scan type : Progressive
Bits/(Pixel*Frame) : 0.057
Stream size : 881 MiB (81%)
Writing library : x264 core 148 r2694 3b70645
Encoding settings : cabac=1 / ref=5 / deblock=1:-1:-1 / analyse=0x3:0x133 / me=umh / subme=9 / psy=1 / psy_rd=1.00:0.15 / mixed_ref=1 / me_range=24 / chroma_me=1 / trellis=2 / 8x8dct=1 / cqm=0 / deadzone=21,11 / fast_pskip=1 / chroma_qp_offset=-3 / threads=6 / lookahead_threads=1 / sliced_threads=0 / nr=0 / decimate=1 / interlaced=0 / bluray_compat=0 / constrained_intra=0 / bframes=3 / b_pyramid=2 / b_adapt=2 / b_bias=0 / direct=3 / weightb=1 / open_gop=0 / weightp=2 / keyint=250 / keyint_min=23 / scenecut=40 / intra_refresh=0 / rc_lookahead=60 / rc=2pass / mbtree=1 / bitrate=1207 / ratetol=1.0 / qcomp=0.65 / qpmin=0 / qpmax=69 / qpstep=4 / cplxblur=20.0 / qblur=0.5 / vbv_maxrate=20000 / vbv_bufsize=19500 / nal_hrd=none / filler=0 / ip_ratio=1.40 / aq=1:1.00
Language : English
Default : Yes
Forced : No

Audio #1
ID : 2
Format : AAC
Format/Info : Advanced Audio Codec
Format profile : LC
Codec ID : A_AAC-2
Duration : 1 h 42 min
Bit rate : 92.0 kb/s
Channel(s) : 2 channels
Channel positions : Front: L R
Sampling rate : 48.0 kHz
Frame rate : 46.875 FPS (1024 SPF)
Compression mode : Lossy
Delay relative to video : 9 ms
Stream size : 67.2 MiB (6%)
Language : English
Default : No
Forced : No

Audio #2
ID : 5
Format : AAC
Format/Info : Advanced Audio Codec
Format profile : LC
Codec ID : A_AAC-2
Duration : 1 h 42 min
Bit rate : 192 kb/s
Channel(s) : 2 channels
Channel positions : Front: L R
Sampling rate : 48.0 kHz
Frame rate : 46.875 FPS (1024 SPF)
Compression mode : Lossy
Stream size : 138 MiB (13%)
Title : By-MAHER
Language : Hindi
Default : Yes
Forced : Yes

Text #1
ID : 3
Format : UTF-8
Codec ID : S_TEXT/UTF8
Codec ID/Info : UTF-8 Plain Text
Duration : 1 h 34 min
Bit rate : 54 b/s
Count of elements : 1408
Stream size : 37.8 KiB (0%)
Language : English
Default : No
Forced : No

Text #2
ID : 4
Format : UTF-8
Codec ID : S_TEXT/UTF8
Codec ID/Info : UTF-8 Plain Text
Duration : 1 h 39 min
Bit rate : 56 b/s
Count of elements : 1533
Stream size : 40.7 KiB (0%)
Language : English
Default : No
Forced : No





Sin City A Dame to Kill For (2014) 720p BluRay x264 Esubs [Dual Audio][Hindi+English]
Sin City A Dame to Kill For (2014) 720p BluRay x264 Esubs [Dual Audio][Hindi+English]
Sin City A Dame to Kill For (2014) 720p BluRay x264 Esubs [Dual Audio][Hindi+English]
Sin City A Dame to Kill For (2014) 720p BluRay x264 Esubs [Dual Audio][Hindi+English]
Sin City A Dame to Kill For (2014) 720p BluRay x264 Esubs [Dual Audio][Hindi+English]

It's PAK Dubbing DTH Audio 1st on Net


SINGLE DIRECT FAST LINKS
http://www.heroupload.us/97185fb9c9187aa2/Sin.City.A.Dame.to.Kill.For.2014.x264.720p.Dual.Audio.Hindi+English.BluRay.Esubs.Exclusive-Maher.mkv



http://filefloater.com/538/Sin.City.A.Dame.to.Kill.For.2014.x264.720p.Dual.Audio.Hindi+English.BluRay.Esubs.Exclusive-Maher.mkv



Tags: Sin

Comments:

Dear visitor, you went to the site as unregistered user
We encourage you to create an account or enter the site under your name

Add comment

Name:*
E-Mail:*
Text:
Bold Italic Underline Strike | Align left Center Align right | Insert smilies Insert link URLInsert protected URL Select color | Add Hidden Text Insert Quote Convert selected text from selection to Cyrillic (Russian) alphabet Insert spoiler
Enter the code: *

Create an account

Advertising