» » Astro Boy (2009) 720p BluRay x264 [Dual Audio][Hindi+English] - Maher Exclusive

Astro Boy (2009) 720p BluRay x264 [Dual Audio][Hindi+English] - Maher Exclusive

Astro Boy (2009) 720p BluRay x264 [Dual Audio][Hindi+English] - Maher Exclusive





Format : Matroska
Format version : Version 4 / Version 2
File size : 1.30 GiB
Duration : 1 h 33 min
Overall bit rate : 1 980 kb/s
Encoded date : UTC 2018-03-19 13:27:58
Writing application : mkvmerge v9.7.1 ('Pandemonium') 64bit
Writing library : libebml v1.3.4 + libmatroska v1.4.5

Video
ID : 1
Format : AVC
Format/Info : Advanced Video Codec
Format profile : High@L4.1
Format settings, CABAC : Yes
Format settings, ReFrames : 4 frames
Codec ID : V_MPEG4/ISO/AVC
Duration : 1 h 33 min
Bit rate : 1 500 kb/s
Width : 1 280 pixels
Height : 544 pixels
Display aspect ratio : 2.35:1
Frame rate mode : Constant
Frame rate : 23.976 (23976/1000) FPS
Color space : YUV
Chroma subsampling : 4:2:0
Bit depth : 8 bits
Scan type : Progressive
Bits/(Pixel*Frame) : 0.090
Stream size : 1 007 MiB (76%)
Writing library : x264 core 148 r2638M 7599210
Encoding settings : cabac=1 / ref=4 / deblock=1:-1:-1 / analyse=0x3:0x113 / me=umh / subme=9 / psy=1 / psy_rd=1.00:0.15 / mixed_ref=1 / me_range=24 / chroma_me=1 / trellis=2 / 8x8dct=1 / cqm=0 / deadzone=21,11 / fast_pskip=1 / chroma_qp_offset=-3 / threads=32 / lookahead_threads=4 / sliced_threads=0 / nr=0 / decimate=1 / interlaced=0 / bluray_compat=0 / constrained_intra=0 / bframes=3 / b_pyramid=2 / b_adapt=2 / b_bias=0 / direct=3 / weightb=1 / open_gop=0 / weightp=2 / keyint=250 / keyint_min=25 / scenecut=40 / intra_refresh=0 / rc_lookahead=50 / rc=2pass / mbtree=1 / bitrate=1500 / ratetol=1.0 / qcomp=0.60 / qpmin=0 / qpmax=69 / qpstep=4 / cplxblur=20.0 / qblur=0.5 / vbv_maxrate=31250 / vbv_bufsize=31250 / nal_hrd=none / filler=0 / ip_ratio=1.40 / aq=3:1.00
Default : Yes
Forced : No

Audio #1
ID : 2
Format : AAC
Format/Info : Advanced Audio Codec
Format profile : LC
Codec ID : A_AAC
Duration : 1 h 33 min
Bit rate : 224 kb/s
Channel(s) : 6 channels
Channel positions : Front: L C R, Side: L R, LFE
Sampling rate : 48.0 kHz
Frame rate : 46.875 FPS (1024 spf)
Compression mode : Lossy
Stream size : 150 MiB (11%)
Language : English
Default : No
Forced : No

Audio #2
ID : 3
Format : AAC
Format/Info : Advanced Audio Codec
Format profile : LC
Codec ID : A_AAC
Duration : 1 h 33 min
Bit rate : 254 kb/s
Channel(s) : 2 channels
Channel positions : Front: L R
Sampling rate : 44.1 kHz
Frame rate : 43.066 FPS (1024 spf)
Compression mode : Lossy
Stream size : 170 MiB (13%)
Title : By-MAHER
Language : Hindi
Default : Yes
Forced : Yes






Astro Boy (2009) 720p BluRay x264 [Dual Audio][Hindi+English] - Maher Exclusive
Astro Boy (2009) 720p BluRay x264 [Dual Audio][Hindi+English] - Maher Exclusive
Astro Boy (2009) 720p BluRay x264 [Dual Audio][Hindi+English] - Maher Exclusive
Astro Boy (2009) 720p BluRay x264 [Dual Audio][Hindi+English] - Maher Exclusive
Astro Boy (2009) 720p BluRay x264 [Dual Audio][Hindi+English] - Maher Exclusive

SINGLE DIRECT FAST LINKS

http://www.heroupload.us/a893c916c8edf225/Astro.Boy.2009.x264.720p.Dual.Audio.Hindi+English.BluRay.Exclusive-Maher.mkv



http://filefloater.com/a9Y/Astro.Boy.2009.x264.720p.Dual.Audio.Hindi+English.BluRay.Exclusive-Maher.mkv




Tags: Astro

Comments:

Dear visitor, you went to the site as unregistered user
We encourage you to create an account or enter the site under your name

Add comment

Name:*
E-Mail:*
Text:
Bold Italic Underline Strike | Align left Center Align right | Insert smilies Insert link URLInsert protected URL Select color | Add Hidden Text Insert Quote Convert selected text from selection to Cyrillic (Russian) alphabet Insert spoiler
Enter the code: *

Create an account

Advertising