» » Gifted (2017) 720p BluRay x264 [Dual Audio][Hindi+English]

Gifted (2017) 720p BluRay x264 [Dual Audio][Hindi+English]

Gifted (2017) 720p BluRay x264 [Dual Audio][Hindi+English]





General
Format : Matroska
Format version : Version 4 / Version 2
File size : 900 MiB
Duration : 1 h 41 min
Overall bit rate : 1 244 kb/s

Video
ID : 1
Format : AVC
Format/Info : Advanced Video Codec
Format profile : High@L4.1
Format settings : CABAC / 4 Ref Frames
Format settings, CABAC : Yes
Format settings, RefFrames : 4 frames
Codec ID : V_MPEG4/ISO/AVC
Duration : 1 h 41 min
Bit rate : 900 kb/s
Width : 1 280 pixels
Height : 534 pixels
Display aspect ratio : 2.40:1
Original display aspect ratio : 2.40:1
Frame rate mode : Constant
Frame rate : 23.976 FPS
Color space : YUV
Chroma subsampling : 4:2:0
Bit depth : 8 bits
Scan type : Progressive
Bits/(Pixel*Frame) : 0.055
Stream size : 651 MiB (72%)
Writing library : x264 core 148
Default : Yes
Forced : No

Audio #1
ID : 2
Format : AC-3
Format/Info : Audio Coding 3
Codec ID : A_AC3
Duration : 1 h 41 min
Bit rate mode : Constant
Bit rate : 224 kb/s
Channel(s) : 6 channels
Channel positions : Front: L C R, Side: L R, LFE
Sampling rate : 48.0 kHz
Frame rate : 31.250 FPS (1536 SPF)
Bit depth : 16 bits
Compression mode : Lossy
Delay relative to video : -43 ms
Stream size : 162 MiB (18%)
Language : Hindi
Service kind : Complete Main
Default : Yes
Forced : No

Audio #2
ID : 3
Format : AAC
Format/Info : Advanced Audio Codec
Format profile : LC
Codec ID : A_AAC-2
Duration : 1 h 41 min
Bit rate : 117 kb/s
Channel(s) : 2 channels
Channel positions : Front: L R
Sampling rate : 48.0 kHz
Frame rate : 46.875 FPS (1024 SPF)
Compression mode : Lossy
Delay relative to video : -43 ms
Stream size : 84.9 MiB (9%)
Language : English
Default : No
Forced : No

Text
ID : 4
Format : UTF-8
Codec ID : S_TEXT/UTF8
Codec ID/Info : UTF-8 Plain Text
Duration : 1 h 41 min
Bit rate : 86 b/s
Count of elements : 1838
Stream size : 64.3 KiB (0%)
Default : Yes
Forced : No 



Gifted (2017) 720p BluRay x264 [Dual Audio][Hindi+English]


SINGLE DIRECT FAST LINKS

http://www.heroupload.us/23e3888117b1731a/Gifted.2017.720p.BluRay.x264.Dual.Audio.Hindi.DD5.1+English.2.0.ESub-Exclusive.mkv



http://filefloater.com/a99/Gifted.2017.720p.BluRay.x264.Dual.Audio.Hindi.DD5.1+English.2.0.ESub-Exclusive.mkv



Tags: Gifted

Comments:

Dear visitor, you went to the site as unregistered user
We encourage you to create an account or enter the site under your name

Add comment

Name:*
E-Mail:*
Text:
Bold Italic Underline Strike | Align left Center Align right | Insert smilies Insert link URLInsert protected URL Select color | Add Hidden Text Insert Quote Convert selected text from selection to Cyrillic (Russian) alphabet Insert spoiler
Enter the code: *

Create an account

Advertising