» » The Cabin In The Woods (2012) 720p BluRay x264 Esub [Dual Audio][Hindi+English] Maher

The Cabin In The Woods (2012) 720p BluRay x264 Esub [Dual Audio][Hindi+English] Maher

The Cabin In The Woods (2012) 720p BluRay x264 Esub [Dual Audio][Hindi+English] Maher







Format : Matroska
Format version : Version 4 / Version 2
File size : 823 MiB
Duration : 1 h 35 min
Overall bit rate : 1 211 kb/s
Encoded date : UTC 2018-03-18 10:19:04
Writing application : mkvmerge v9.7.1 ('Pandemonium') 64bit
Writing library : libebml v1.3.4 + libmatroska v1.4.5

Video
ID : 1
Format : AVC
Format/Info : Advanced Video Codec
Format profile : High@L4
Format settings, CABAC : Yes
Format settings, ReFrames : 5 frames
Codec ID : V_MPEG4/ISO/AVC
Duration : 1 h 35 min
Bit rate : 861 kb/s
Width : 1 280 pixels
Height : 536 pixels
Display aspect ratio : 2.40:1
Frame rate mode : Constant
Frame rate : 23.976 (24000/1001) FPS
Color space : YUV
Chroma subsampling : 4:2:0
Bit depth : 8 bits
Scan type : Progressive
Bits/(Pixel*Frame) : 0.052
Stream size : 585 MiB (71%)
Writing library : x264 core 125 r2200 999b753
Encoding settings : cabac=1 / ref=5 / deblock=1:0:0 / analyse=0x3:0x113 / me=umh / subme=8 / psy=1 / psy_rd=1.00:0.15 / mixed_ref=1 / me_range=16 / chroma_me=1 / trellis=1 / 8x8dct=1 / cqm=0 / deadzone=21,11 / fast_pskip=1 / chroma_qp_offset=-3 / threads=12 / lookahead_threads=2 / sliced_threads=0 / nr=0 / decimate=1 / interlaced=0 / bluray_compat=0 / constrained_intra=0 / bframes=3 / b_pyramid=2 / b_adapt=2 / b_bias=0 / direct=3 / weightb=1 / open_gop=0 / weightp=2 / keyint=240 / keyint_min=23 / scenecut=40 / intra_refresh=0 / rc_lookahead=50 / rc=2pass / mbtree=1 / bitrate=861 / ratetol=1.0 / qcomp=0.60 / qpmin=10 / qpmax=51 / qpstep=4 / cplxblur=20.0 / qblur=0.5 / ip_ratio=1.40 / aq=1:1.00
Default : Yes
Forced : No

Audio #1
ID : 2
Format : AAC
Format/Info : Advanced Audio Codec
Format profile : LC
Codec ID : A_AAC
Duration : 1 h 35 min
Bit rate : 94.0 kb/s
Channel(s) : 2 channels
Channel positions : Front: L R
Sampling rate : 44.1 kHz
Frame rate : 43.066 FPS (1024 spf)
Compression mode : Lossy
Stream size : 63.9 MiB (8%)
Language : English
Default : No
Forced : No

Audio #2
ID : 3
Format : AAC
Format/Info : Advanced Audio Codec
Format profile : LC
Codec ID : A_AAC
Duration : 1 h 35 min
Bit rate : 254 kb/s
Channel(s) : 2 channels
Channel positions : Front: L R
Sampling rate : 44.1 kHz
Frame rate : 43.066 FPS (1024 spf)
Compression mode : Lossy
Stream size : 172 MiB (21%)
Title : By-MAHER
Language : Hindi
Default : Yes
Forced : Yes

Text
ID : 4
Format : UTF-8
Codec ID : S_TEXT/UTF8
Codec ID/Info : UTF-8 Plain Text
Duration : 1 h 28 min
Bit rate : 44 b/s
Count of elements : 984
Stream size : 29.1 KiB (0%)
Default : Yes
Forced : No







The Cabin In The Woods (2012) 720p BluRay x264 Esub [Dual Audio][Hindi+English] Maher
The Cabin In The Woods (2012) 720p BluRay x264 Esub [Dual Audio][Hindi+English] Maher
The Cabin In The Woods (2012) 720p BluRay x264 Esub [Dual Audio][Hindi+English] Maher
The Cabin In The Woods (2012) 720p BluRay x264 Esub [Dual Audio][Hindi+English] Maher
The Cabin In The Woods (2012) 720p BluRay x264 Esub [Dual Audio][Hindi+English] Maher

SINGLE DIRECT FAST LINKS

http://www.heroupload.us/49846bc5781aa55c/The.Cabin.In.The.Woods.2012.x264.720p.Dual.Audio.Hindi+English.BluRay.Esubs.Exclusive-Maher.mkv



http://filefloater.com/a6V/The.Cabin.In.The.Woods.2012.x264.720p.Dual.Audio.Hindi+English.BluRay.Esubs.Exclusive-Maher.mkv



Tags: The

Comments:

Dear visitor, you went to the site as unregistered user
We encourage you to create an account or enter the site under your name

Sonjavax

25 March 2018 21:06

cannabis textiles cannabis growing troubleshooting
why are all cannabis stocks down today cannabis grower jobs hiring california

cannabis use disorder mild vs moderate <a href="http://forums.vpslink.com/member.php?u=1121764-MarilynCat">ca
nnabis use disorder dsm 5</a>
cannabis machine trimming services <a href="http://www.puzzlejet.com/profile/2718709/jeanne25u64">is cannabis oil legal in alabama</a>

Agustinwhity

30 March 2018 12:20

cbd oil for sale at walmart cbd oil benefits
cbd oil reviews complaints cbd oil for dogs

cbd oil benefits <a href="http://konkord-auto.ru/">cbd oil reviews and complaints</a>
cbd oil for pain <a href="http://vsya-domashka.ru/">cbd oil for sale on amazon</a>

Add comment

Name:*
E-Mail:*
Text:
Bold Italic Underline Strike | Align left Center Align right | Insert smilies Insert link URLInsert protected URL Select color | Add Hidden Text Insert Quote Convert selected text from selection to Cyrillic (Russian) alphabet Insert spoiler
Enter the code: *

Create an account

Advertising