» » Love, Rosie (2014) 720p - BluRay - x264 - ESubs [Dual Audio][Hindi+English] ETM

Love, Rosie (2014) 720p - BluRay - x264 - ESubs [Dual Audio][Hindi+English] ETM


Love, Rosie (2014) 720p - BluRay - x264 - ESubs [Dual Audio][Hindi+English] ETM




Format : Matroska
Format version : Version 4 / Version 2
File size : 902 MiB
Duration : 1 h 42 min
Overall bit rate : 1 225 kb/s
Encoded date : UTC 2018-03-15 07:53:42
Writing application : mkvmerge v20.0.0 ('I Am The Sun') 64-bit
Writing library : libebml v1.3.5 + libmatroska v1.4.8

Video
ID : 1
Format : AVC
Format/Info : Advanced Video Codec
Format profile : High@L4.1
Format settings : CABAC / 8 Ref Frames
Format settings, CABAC : Yes
Format settings, RefFrames : 8 frames
Codec ID : V_MPEG4/ISO/AVC
Duration : 1 h 42 min
Bit rate : 999 kb/s
Width : 1 280 pixels
Height : 544 pixels
Display aspect ratio : 2.35:1
Frame rate mode : Constant
Frame rate : 23.976 FPS
Color space : YUV
Chroma subsampling : 4:2:0
Bit depth : 8 bits
Scan type : Progressive
Bits/(Pixel*Frame) : 0.060
Stream size : 735 MiB (82%)
Writing library : x264 core 142 r2479 dd79a61
Encoding settings : cabac=1 / ref=8 / deblock=1:0:0 / analyse=0x3:0x113 / me=umh / subme=9 / psy=1 / psy_rd=1.00:0.00 / mixed_ref=1 / me_range=16 / chroma_me=1 / trellis=2 / 8x8dct=1 / cqm=0 / deadzone=21,11 / fast_pskip=1 / chroma_qp_offset=-2 / threads=12 / lookahead_threads=1 / sliced_threads=0 / nr=0 / decimate=1 / interlaced=0 / bluray_compat=0 / constrained_intra=0 / bframes=3 / b_pyramid=2 / b_adapt=2 / b_bias=0 / direct=3 / weightb=1 / open_gop=0 / weightp=2 / keyint=240 / keyint_min=24 / scenecut=40 / intra_refresh=0 / rc_lookahead=40 / rc=2pass / mbtree=1 / bitrate=999 / ratetol=1.0 / qcomp=0.60 / qpmin=0 / qpmax=69 / qpstep=4 / cplxblur=20.0 / qblur=0.5 / vbv_maxrate=62500 / vbv_bufsize=78125 / nal_hrd=none / filler=0 / ip_ratio=1.40 / aq=1:1.00
Default : Yes
Forced : No
Color range : Limited
Color primaries : BT.709
Transfer characteristics : BT.709
Matrix coefficients : BT.709

Audio #1
ID : 2
Format : AAC
Format/Info : Advanced Audio Codec
Format profile : LC
Codec ID : A_AAC-2
Duration : 1 h 42 min
Bit rate : 128 kb/s
Channel(s) : 2 channels
Channel positions : Front: L R
Sampling rate : 48.0 kHz
Frame rate : 46.875 FPS (1024 SPF)
Compression mode : Lossy
Delay relative to video : -34 ms
Stream size : 94.2 MiB (10%)
Language : Hindi
Default : Yes
Forced : No

Audio #2
ID : 3
Format : AAC
Format/Info : Advanced Audio Codec
Format profile : HE-AAC / LC
Format settings : NBC
Codec ID : A_AAC-5
Duration : 1 h 42 min
Bit rate : 96.0 kb/s
Channel(s) : 6 channels
Channel positions : Front: L C R, Side: L R, LFE
Sampling rate : 48.0 kHz / 24.0 kHz
Frame rate : 23.438 FPS (1024 SPF)
Compression mode : Lossy
Delay relative to video : -105 ms
Stream size : 70.7 MiB (8%)
Language : English
Default : No
Forced : No

Text
ID : 4
Format : UTF-8
Codec ID : S_TEXT/UTF8
Codec ID/Info : UTF-8 Plain Text
Duration : 1 h 36 min
Bit rate : 58 b/s
Count of elements : 1498
Stream size : 41.8 KiB (0%)
Language : English
Default : Yes
Forced : No



Love, Rosie (2014) 720p - BluRay - x264 - ESubs [Dual Audio][Hindi+English] ETM
Love, Rosie (2014) 720p - BluRay - x264 - ESubs [Dual Audio][Hindi+English] ETM
Love, Rosie (2014) 720p - BluRay - x264 - ESubs [Dual Audio][Hindi+English] ETM
Love, Rosie (2014) 720p - BluRay - x264 - ESubs [Dual Audio][Hindi+English] ETM
Love, Rosie (2014) 720p - BluRay - x264 - ESubs [Dual Audio][Hindi+English] ETM
Love, Rosie (2014) 720p - BluRay - x264 - ESubs [Dual Audio][Hindi+English] ETM
Love, Rosie (2014) 720p - BluRay - x264 - ESubs [Dual Audio][Hindi+English] ETM
Love, Rosie (2014) 720p - BluRay - x264 - ESubs [Dual Audio][Hindi+English] ETM


SINGLE DIRECT FAST LINKS

http://www.heroupload.us/07a8321d23f84138/Love,Rosie.2014.Dual.Audio.Hindi-2.0.English.720p.BluRay.ESubs-ETM.mkv



http://filefloater.com/7t9/Love,Rosie.2014.Dual.Audio.Hindi-2.0.English.720p.BluRay.ESubs-ETM.mkv




Tags: Love

Comments:

Dear visitor, you went to the site as unregistered user
We encourage you to create an account or enter the site under your name

Add comment

Name:*
E-Mail:*
Text:
Bold Italic Underline Strike | Align left Center Align right | Insert smilies Insert link URLInsert protected URL Select color | Add Hidden Text Insert Quote Convert selected text from selection to Cyrillic (Russian) alphabet Insert spoiler
Enter the code: *

Create an account

Advertising