» » A Single Man (2009) 720p BDRip x264 ESubs [Multi Audio][Hindi+Telugu+Tamil+English]

A Single Man (2009) 720p BDRip x264 ESubs [Multi Audio][Hindi+Telugu+Tamil+English]

A Single Man (2009) 720p BDRip x264 ESubs [Multi Audio][Hindi+Telugu+Tamil+English]





General
Format                      : MPEG-4
Format profile              : Base Media
Codec ID                    : isom (isom/iso2/avc1/mp41)
File size                   : 1.00 GiB
Duration                    : 1 h 41 min
Overall bit rate            : 1 410 kb/s
Writing application         : Lavf57.83.100

Video
ID                          : 1
Format                      : AVC
Format/Info                 : Advanced Video Codec
Format profile              : High@L3.1
Format settings, CABAC      : Yes
Format settings, RefFrames  : 5 frames
Codec ID                    : avc1
Codec ID/Info               : Advanced Video Coding
Duration                    : 1 h 41 min
Bit rate                    : 1 280 kb/s
Width                       : 1 280 pixels
Height                      : 720 pixels
Display aspect ratio        : 2.35:1
Frame rate mode             : Constant
Frame rate                  : 30.000 FPS
Color space                 : YUV
Chroma subsampling          : 4:2:0
Bit depth                   : 8 bits
Scan type                   : Progressive
Bits/(Pixel*Frame)          : 0.046
Stream size                 : 926 MiB (90%)
Writing library             : x264 core 148 r2643 5c65704
Encoding settings           : cabac=1 / ref=5 / deblock=1:0:0 / analyse=0x3:0x113 / me=hex / subme=7 / psy=1 / psy_rd=1.00:0.00 / mixed_ref=1 / me_range=16 / chroma_me=1 / trellis=1 / 8x8dct=1 / cqm=0 / deadzone=21,11 / fast_pskip=1 / chroma_qp_offset=-2 / threads=8 / lookahead_threads=8 / sliced_threads=1 / slices=8 / nr=0 / decimate=1 / interlaced=0 / bluray_compat=0 / constrained_intra=0 / bframes=0 / weightp=2 / keyint=250 / keyint_min=25 / scenecut=40 / intra_refresh=0 / rc=abr / mbtree=0 / bitrate=1280 / ratetol=1.0 / qcomp=0.60 / qpmin=0 / qpmax=69 / qpstep=4 / ip_ratio=1.40 / aq=1:1.00

Audio
ID                          : 2
Format                      : AAC
Format/Info                 : Advanced Audio Codec
Format profile              : LC
Codec ID                    : 40
Duration                    : 1 h 41 min
Bit rate mode               : Constant
Bit rate                    : 129 kb/s
Channel(s)                  : 2 channels
Channel positions           : Front: L R
Sampling rate               : 44.1 kHz
Frame rate                  : 43.066 FPS (1024 SPF)
Compression mode            : Lossy
Stream size                 : 93.7 MiB (9%)
Default                     : Yes
Alternate group             : 1



A Single Man (2009) 720p BDRip x264 ESubs [Multi Audio][Hindi+Telugu+Tamil+English]
SINGLE DIRECT FAST LINKS

http://www.heroupload.us/f68e96e0c4cfd2e8/A.Single.Man.2009.720p.BDRip.Tamil+Telugu+Hindi+English-KMHD.mkv



http://filefloater.com/7p7/A.Single.Man.2009.720p.BDRip.Tamil+Telugu+Hindi+English-KMHD.mkv





Tags: A

Comments:

Dear visitor, you went to the site as unregistered user
We encourage you to create an account or enter the site under your name

Add comment

Name:*
E-Mail:*
Text:
Bold Italic Underline Strike | Align left Center Align right | Insert smilies Insert link URLInsert protected URL Select color | Add Hidden Text Insert Quote Convert selected text from selection to Cyrillic (Russian) alphabet Insert spoiler
Enter the code: *

Create an account

Advertising