» » Star Wars The Last Jedi (2017) 720p BluRay x264 [Dual Audio][Hindi-Clear+English]

Star Wars The Last Jedi (2017) 720p BluRay x264 [Dual Audio][Hindi-Clear+English]

Star Wars The Last Jedi (2017) 720p BluRay x264 [Dual Audio][Hindi-Clear+English]





General
Format                                   : Matroska
Format version                           : Version 4 / Version 2
File size                                : 1.38 GiB
Duration                                 : 2 h 31 min
Overall bit rate                         : 1 299 kb/s

Video
ID                                       : 1
Format                                   : AVC
Format/Info                              : Advanced Video Codec
Format profile                           : High@L4.1
Format settings                          : CABAC / 4 Ref Frames
Format settings, CABAC                   : Yes
Format settings, RefFrames               : 4 frames
Codec ID                                 : V_MPEG4/ISO/AVC
Duration                                 : 2 h 31 min
Bit rate                                 : 1 100 kb/s
Width                                    : 1 280 pixels
Height                                   : 536 pixels
Display aspect ratio                     : 2.40:1
Frame rate mode                          : Constant
Frame rate                               : 23.976 (24000/1001) FPS
Color space                              : YUV
Chroma subsampling                       : 4:2:0
Bit depth                                : 8 bits
Scan type                                : Progressive
Bits/(Pixel*Frame)                       : 0.067
Stream size                              : 1.17 GiB (85%)
Writing library                          : x264 core 148 r2708 86b7198
Default                                  : Yes
Forced                                   : No

Audio #1
ID                                       : 2
Format                                   : AAC
Format/Info                              : Advanced Audio Codec
Format profile                           : LC
Codec ID                                 : A_AAC-2
Duration                                 : 2 h 31 min
Bit rate                                 : 96.0 kb/s
Channel(s)                               : 2 channels
Channel positions                        : Front: L R
Sampling rate                            : 44.1 kHz
Frame rate                               : 43.066 FPS (1024 SPF)
Compression mode                         : Lossy
Stream size                              : 104 MiB (7%)
Language                                 : Hindi
Default                                  : Yes
Forced                                   : No

Audio #2
ID                                       : 3
Format                                   : AAC
Format/Info                              : Advanced Audio Codec
Format profile                           : LC
Codec ID                                 : A_AAC-2
Duration                                 : 2 h 31 min
Bit rate                                 : 96.0 kb/s
Channel(s)                               : 2 channels
Channel positions                        : Front: L R
Sampling rate                            : 44.1 kHz
Frame rate                               : 43.066 FPS (1024 SPF)
Compression mode                         : Lossy
Stream size                              : 104 MiB (7%)
Language                                 : English
Default                                  : No
Forced                                   : No

Text
ID                                       : 4
Format                                   : VobSub
Muxing mode                              : zlib
Codec ID                                 : S_VOBSUB
Codec ID/Info                            : Picture based subtitle format used on DVDs
Duration                                 : 2 h 23 min
Bit rate                                 : 4 795 b/s
Count of elements                        : 1898
Stream size                              : 4.92 MiB (0%)
Language                                 : English
Default                                  : No
Forced                                   : No


Star Wars The Last Jedi (2017) 720p BluRay x264 [Dual Audio][Hindi-Clear+English]Star Wars The Last Jedi (2017) 720p BluRay x264 [Dual Audio][Hindi-Clear+English]Star Wars The Last Jedi (2017) 720p BluRay x264 [Dual Audio][Hindi-Clear+English]Star Wars The Last Jedi (2017) 720p BluRay x264 [Dual Audio][Hindi-Clear+English]Star Wars The Last Jedi (2017) 720p BluRay x264 [Dual Audio][Hindi-Clear+English]Star Wars The Last Jedi (2017) 720p BluRay x264 [Dual Audio][Hindi-Clear+English]Star Wars The Last Jedi (2017) 720p BluRay x264 [Dual Audio][Hindi-Clear+English]

SINGLE DIRECT FAST LINKS
http://www.heroupload.us/8c9c193ad09efcff/Star.Wars.The.Last.Jedi.2017.720p.BluRay.x264.Dual.Audio.Hindi-Cleaned+English.2.0.ESub-Exclusive.mkv



http://filefloater.com/7n8/Star.Wars.The.Last.Jedi.2017.720p.BluRay.x264.Dual.Audio.Hindi-Cleaned+English.2.0.ESub-Exclusive.mkv



Tags: Star

Comments:

Dear visitor, you went to the site as unregistered user
We encourage you to create an account or enter the site under your name

Add comment

Name:*
E-Mail:*
Text:
Bold Italic Underline Strike | Align left Center Align right | Insert smilies Insert link URLInsert protected URL Select color | Add Hidden Text Insert Quote Convert selected text from selection to Cyrillic (Russian) alphabet Insert spoiler
Enter the code: *

Create an account

Advertising