» » Thor Ragnarok (2017) 1080p BluRay x264 [Original Multi Audio][Hindi+Tamil+Telugu+Eng]

Thor Ragnarok (2017) 1080p BluRay x264 [Original Multi Audio][Hindi+Tamil+Telugu+Eng]

Thor Ragnarok (2017) 1080p BluRay x264 [Original Multi Audio][Hindi+Tamil+Telugu+Eng]





General
Format                      : Matroska
Format version              : Version 4 / Version 2
File size                   : 3.01 GiB
Duration                    : 2 h 10 min
Overall bit rate            : 3 297 kb/s
Encoded date                : UTC 2018-03-03 05:46:59
Writing application         : mkvmerge v7.1.0 ('Good Love') 32bit built on Jul 27 2014 12:59:18
Writing library             : libebml v1.3.0 + libmatroska v1.4.1

Video
ID                          : 1
Format                      : AVC
Format/Info                 : Advanced Video Codec
Format profile              : High@L4.1
Format settings, CABAC      : Yes
Format settings, RefFrames  : 4 frames
Codec ID                    : V_MPEG4/ISO/AVC
Duration                    : 2 h 10 min
Bit rate                    : 2 000 kb/s
Width                       : 1 920 pixels
Height                      : 800 pixels
Display aspect ratio        : 2.40:1
Frame rate mode             : Constant
Frame rate                  : 23.976 (24000/1001) FPS
Color space                 : YUV
Chroma subsampling          : 4:2:0
Bit depth                   : 8 bits
Scan type                   : Progressive
Bits/(Pixel*Frame)          : 0.054
Stream size                 : 1.82 GiB (61%)
Writing library             : x264 core 152
Encoding settings           : cabac=1 / ref=4 / deblock=1:-1:-1 / analyse=0x3:0x133 / me=umh / subme=9 / psy=1 / psy_rd=1.00:0.15 / mixed_ref=1 / me_range=24 / chroma_me=1 / trellis=2 / 8x8dct=1 / cqm=0 / deadzone=21,11 / fast_pskip=0 / chroma_qp_offset=-3 / threads=12 / lookahead_threads=1 / sliced_threads=0 / nr=0 / decimate=1 / interlaced=0 / bluray_compat=0 / constrained_intra=0 / bframes=3 / b_pyramid=2 / b_adapt=2 / b_bias=0 / direct=3 / weightb=1 / open_gop=0 / weightp=2 / keyint=250 / keyint_min=23 / scenecut=40 / intra_refresh=0 / rc_lookahead=60 / rc=2pass / mbtree=1 / bitrate=2000 / ratetol=1.0 / qcomp=0.60 / qpmin=0 / qpmax=69 / qpstep=4 / cplxblur=20.0 / qblur=0.5 / vbv_maxrate=31250 / vbv_bufsize=31250 / nal_hrd=none / filler=0 / ip_ratio=1.40 / aq=1:1.00
Language                    : English
Default                     : Yes
Forced                      : No

Audio #1
ID                          : 2
Format                      : AC-3
Format/Info                 : Audio Coding 3
Format settings, Endianness : Big
Codec ID                    : A_AC3
Duration                    : 2 h 10 min
Bit rate mode               : Constant
Bit rate                    : 384 kb/s
Channel(s)                  : 6 channels
Channel positions           : Front: L C R, Side: L R, LFE
Sampling rate               : 44.1 kHz
Frame rate                  : 28.711 FPS (1536 SPF)
Bit depth                   : 16 bits
Compression mode            : Lossy
Delay relative to video     : -43 ms
Stream size                 : 358 MiB (12%)
Language                    : Telugu
Service kind                : Complete Main
Default                     : Yes
Forced                      : No

Audio #2
ID                          : 3
Format                      : AC-3
Format/Info                 : Audio Coding 3
Format settings, Endianness : Big
Codec ID                    : A_AC3
Duration                    : 2 h 10 min
Bit rate mode               : Constant
Bit rate                    : 384 kb/s
Channel(s)                  : 6 channels
Channel positions           : Front: L C R, Side: L R, LFE
Sampling rate               : 44.1 kHz
Frame rate                  : 28.711 FPS (1536 SPF)
Bit depth                   : 16 bits
Compression mode            : Lossy
Delay relative to video     : -43 ms
Stream size                 : 358 MiB (12%)
Language                    : Tamil
Service kind                : Complete Main
Default                     : No
Forced                      : No

Audio #3
ID                          : 4
Format                      : AC-3
Format/Info                 : Audio Coding 3
Format settings, Endianness : Big
Codec ID                    : A_AC3
Duration                    : 2 h 10 min
Bit rate mode               : Constant
Bit rate                    : 384 kb/s
Channel(s)                  : 6 channels
Channel positions           : Front: L C R, Side: L R, LFE
Sampling rate               : 44.1 kHz
Frame rate                  : 28.711 FPS (1536 SPF)
Bit depth                   : 16 bits
Compression mode            : Lossy
Delay relative to video     : -43 ms
Stream size                 : 358 MiB (12%)
Language                    : Hindi
Service kind                : Complete Main
Default                     : No
Forced                      : No

Audio #4
ID                          : 5
Format                      : AAC
Format/Info                 : Advanced Audio Codec
Format profile              : LC
Codec ID                    : A_AAC
Duration                    : 2 h 10 min
Bit rate                    : 144 kb/s
Channel(s)                  : 2 channels
Channel positions           : Front: L R
Sampling rate               : 48.0 kHz
Frame rate                  : 46.875 FPS (1024 SPF)
Compression mode            : Lossy
Delay relative to video     : -43 ms
Stream size                 : 132 MiB (4%)
Language                    : English
Default                     : No
Forced                      : No

Text
ID                          : 6
Format                      : UTF-8
Codec ID                    : S_TEXT/UTF8
Codec ID/Info               : UTF-8 Plain Text
Duration                    : 2 h 9 min
Bit rate                    : 49 b/s
Count of elements           : 1568
Stream size                 : 47.2 KiB (0%)
Language                    : English
Default                     : Yes
Forced                      : No



Thor Ragnarok (2017) 1080p BluRay x264 [Original Multi Audio][Hindi+Tamil+Telugu+Eng]Thor Ragnarok (2017) 1080p BluRay x264 [Original Multi Audio][Hindi+Tamil+Telugu+Eng]Thor Ragnarok (2017) 1080p BluRay x264 [Original Multi Audio][Hindi+Tamil+Telugu+Eng]Thor Ragnarok (2017) 1080p BluRay x264 [Original Multi Audio][Hindi+Tamil+Telugu+Eng]


SINGLE DIRECT FAST LINKS
http://www.heroupload.us/ca3fceed4494354f/Thor.Ragnarok.2017.BluRay.1080p.DD5.1.Original.Telugu+Tamil+Hindi+English.mkv


http://filefloater.com/9T6/Thor.Ragnarok.2017.BluRay.1080p.DD5.1.Original.Telugu+Tamil+Hindi+English.mkv


700MB LINKS

http://www.heroupload.us/f13d0d3190d0b265/Thor.Ragnarok.2017.BluRay.1080p.DD5.1.Original.Telugu+Tamil+Hindi+English.part1.rar
http://www.heroupload.us/e11718b304f846f1/Thor.Ragnarok.2017.BluRay.1080p.DD5.1.Original.Telugu+Tamil+Hindi+English.part2.rar
http://www.heroupload.us/21697c5a402a0dba/Thor.Ragnarok.2017.BluRay.1080p.DD5.1.Original.Telugu+Tamil+Hindi+English.part3.rar
http://www.heroupload.us/1ef504bc83f8ee1f/Thor.Ragnarok.2017.BluRay.1080p.DD5.1.Original.Telugu+Tamil+Hindi+English.part4.rar
http://www.heroupload.us/7e640423379aa6fa/Thor.Ragnarok.2017.BluRay.1080p.DD5.1.Original.Telugu+Tamil+Hindi+English.part5.rar



http://filefloater.com/9T7/Thor.Ragnarok.2017.BluRay.1080p.DD5.1.Original.Telugu+Tamil+Hindi+English.part1.rar
http://filefloater.com/9T8/Thor.Ragnarok.2017.BluRay.1080p.DD5.1.Original.Telugu+Tamil+Hindi+English.part2.rar
http://filefloater.com/9T9/Thor.Ragnarok.2017.BluRay.1080p.DD5.1.Original.Telugu+Tamil+Hindi+English.part3.rar
http://filefloater.com/cus/Thor.Ragnarok.2017.BluRay.1080p.DD5.1.Original.Telugu+Tamil+Hindi+English.part4.rar
http://filefloater.com/cut/Thor.Ragnarok.2017.BluRay.1080p.DD5.1.Original.Telugu+Tamil+Hindi+English.part5.rar


Tags: Thor

Comments:

Dear visitor, you went to the site as unregistered user
We encourage you to create an account or enter the site under your name

Ronaldnox

6 March 2018 11:44

sales cheap generic viagra com
<a href="http://fmviagraukfjg.com/#">viagra without a doctor's prescription</a>
order viagra sample
viagra no prescription
buy viagra cheap australia
<a href="http://javiagraryjdf.com/#">viagra</a>
viagra buy paypal
order viagra online
cheap viagra pills for sale

MichaelWrike

4 May 2018 14:04

anti viagra pills
<a href="http://viagradoctorsnbhu.com/#">viagra without a doctor's prescription</a>
order viagra now
viagra without a doctor prescription
cheapest price on generic viagra
<a href="http://viagrawithoutsdoctorjehy.com/#">viagra without doctor</a>
what does a real viagra pill look like
viagra without doctor
generic viagra pros and cons

Add comment

Name:*
E-Mail:*
Text:
Bold Italic Underline Strike | Align left Center Align right | Insert smilies Insert link URLInsert protected URL Select color | Add Hidden Text Insert Quote Convert selected text from selection to Cyrillic (Russian) alphabet Insert spoiler
Enter the code: *

Create an account

Advertising