» » The Saint (1997) WEB-DL x264 [Dual Audio][Hindi+English] Skyler

The Saint (1997) WEB-DL x264 [Dual Audio][Hindi+English] Skyler


The Saint (1997) WEB-DL x264 [Dual Audio][Hindi+English] Skyler







Video
ID : 1
Format : AVC
Format/Info : Advanced Video Codec
Format profile : High@L3.1
Format settings : CABAC / 5 Ref Frames
Format settings, CABAC : Yes
Format settings, RefFrames : 5 frames
Codec ID : V_MPEG4/ISO/AVC
Duration : 53 s 440 ms
Bit rate : 1 132 kb/s
Width : 720 pixels
Height : 308 pixels
Display aspect ratio : 2.35:1
Frame rate mode : Constant
Frame rate : 25.000 FPS
Color space : YUV
Chroma subsampling : 4:2:0
Bit depth : 8 bits
Scan type : Progressive
Bits/(Pixel*Frame) : 0.204
Stream size : 7.21 MiB (76%)
Title : the Saint 1997 Dual Audio
Language : English
Default : Yes
Forced : No

Audio #1

ID : 2
Format : AC-3
Format/Info : Audio Coding 3
Codec ID : A_AC3
Duration : 53 s 440 ms
Bit rate mode : Constant
Bit rate : 224 kb/s
Channel(s) : 2 channels
Channel positions : Front: L R
Sampling rate : 48.0 kHz
Frame rate : 31.250 FPS (1536 SPF)
Bit depth : 16 bits
Compression mode : Lossy
Delay relative to video : 24 ms
Stream size : 1.43 MiB (15%)
Title : 2.0 Skyler
Language : Hindi
Service kind : Complete Main
Default : Yes
Forced : No

Audio #2

ID : 3
Format : AAC
Format/Info : Advanced Audio Codec
Format profile : LC
Codec ID : A_AAC-2
Duration : 53 s 441 ms
Bit rate : 128 kb/s
Channel(s) : 2 channels
Channel positions : Front: L R
Sampling rate : 48.0 kHz
Frame rate : 46.875 FPS (1024 SPF)
Compression mode : Lossy
Delay relative to video : 13 ms
Stream size : 835 KiB (9%)
Title : 2.0 Bluray Skyler
Language : English
Default : No
Forced : No

Text

ID : 4
Format : UTF-8
Codec ID : S_TEXT/UTF8
Codec ID/Info : UTF-8 Plain Text
Duration : 54 s 52 ms
Bit rate : 61 b/s
Count of elements : 14
Stream size : 415 Bytes (0%)
Title : Bluray
Language : English
Default : Yes
Forced : No 





The Saint (1997) WEB-DL x264 [Dual Audio][Hindi+English] Skyler
The Saint (1997) WEB-DL x264 [Dual Audio][Hindi+English] Skyler
The Saint (1997) WEB-DL x264 [Dual Audio][Hindi+English] Skyler
The Saint (1997) WEB-DL x264 [Dual Audio][Hindi+English] Skyler
The Saint (1997) WEB-DL x264 [Dual Audio][Hindi+English] Skyler
The Saint (1997) WEB-DL x264 [Dual Audio][Hindi+English] Skyler
The Saint (1997) WEB-DL x264 [Dual Audio][Hindi+English] Skyler
The Saint (1997) WEB-DL x264 [Dual Audio][Hindi+English] Skyler
The Saint (1997) WEB-DL x264 [Dual Audio][Hindi+English] Skyler
The Saint (1997) WEB-DL x264 [Dual Audio][Hindi+English] Skyler
The Saint (1997) WEB-DL x264 [Dual Audio][Hindi+English] Skyler
The Saint (1997) WEB-DL x264 [Dual Audio][Hindi+English] Skyler



SINGLE DIRECT FAST LINKS

https://www.heroupload.com/7c0374491af7b709/The_Saint_1997_WEB-DL_Dual_Audio_Hin+Eng_2.0_Esub_Skyler.mkv



http://filefloater.com/9yi/The_Saint_1997_WEB-DL_Dual_Audio_Hin+Eng_2.0_Esub_Skyler.mkv


Tags: The

Comments:

Dear visitor, you went to the site as unregistered user
We encourage you to create an account or enter the site under your name

Add comment

Name:*
E-Mail:*
Text:
Bold Italic Underline Strike | Align left Center Align right | Insert smilies Insert link URLInsert protected URL Select color | Add Hidden Text Insert Quote Convert selected text from selection to Cyrillic (Russian) alphabet Insert spoiler
Enter the code: *

Create an account

Advertising