» » Thor Ragnarok (2017) 1080p HDRip x264 Esub [Multi Audios][Hindi+Telugu+Tamil+English]

Thor Ragnarok (2017) 1080p HDRip x264 Esub [Multi Audios][Hindi+Telugu+Tamil+English]

Thor Ragnarok (2017) 1080p HDRip x264 Esub [Multi Audios][Hindi+Telugu+Tamil+English]





General
Format                      : Matroska
Format version              : Version 4 / Version 2
File size                   : 2.17 GiB
Duration                    : 2 h 10 min
Overall bit rate mode       : Variable
Overall bit rate            : 2 372 kb/s
Encoded date                : UTC 2018-01-21 05:49:20
Writing application         : mkvmerge v7.1.0 ('Good Love') 32bit built on Jul 27 2014 12:59:18
Writing library             : libebml v1.3.0 + libmatroska v1.4.1

Video
ID                          : 1
Format                      : AVC
Format/Info                 : Advanced Video Codec
Format profile              : Main@L4
Format settings, CABAC      : Yes
Format settings, RefFrames  : 4 frames
Codec ID                    : V_MPEG4/ISO/AVC
Duration                    : 2 h 10 min
Bit rate                    : 1 998 kb/s
Width                       : 1 920 pixels
Height                      : 800 pixels
Display aspect ratio        : 2.40:1
Frame rate mode             : Constant
Frame rate                  : 23.976 (24000/1001) FPS
Color space                 : YUV
Chroma subsampling          : 4:2:0
Bit depth                   : 8 bits
Scan type                   : Progressive
Bits/(Pixel*Frame)          : 0.054
Stream size                 : 1.82 GiB (84%)
Writing library             : x264 core 148 r2708 86b7198
Encoding settings           : cabac=1 / ref=2 / deblock=1:0:0 / analyse=0x1:0x111 / me=hex / subme=6 / psy=1 / psy_rd=1.00:0.00 / mixed_ref=1 / me_range=16 / chroma_me=1 / trellis=1 / 8x8dct=0 / cqm=0 / deadzone=21,11 / fast_pskip=1 / chroma_qp_offset=-2 / threads=25 / lookahead_threads=4 / sliced_threads=0 / nr=0 / decimate=1 / interlaced=0 / bluray_compat=0 / constrained_intra=0 / bframes=3 / b_pyramid=2 / b_adapt=1 / b_bias=0 / direct=1 / weightb=1 / open_gop=0 / weightp=1 / keyint=240 / keyint_min=24 / scenecut=40 / intra_refresh=0 / rc_lookahead=30 / rc=2pass / mbtree=1 / bitrate=1998 / ratetol=1.0 / qcomp=0.60 / qpmin=0 / qpmax=69 / qpstep=4 / cplxblur=20.0 / qblur=0.5 / vbv_maxrate=20000 / vbv_bufsize=25000 / nal_hrd=none / filler=0 / ip_ratio=1.40 / aq=1:1.00
Language                    : English
Default                     : Yes
Forced                      : No
Color range                 : Limited
Color primaries             : BT.709
Transfer characteristics    : BT.709
Matrix coefficients         : BT.709

Audio #1
ID                          : 2
Format                      : MPEG Audio
Format version              : Version 1
Format profile              : Layer 3
Mode                        : Joint stereo
Mode extension              : MS Stereo
Codec ID                    : A_MPEG/L3
Codec ID/Hint               : MP3
Duration                    : 2 h 10 min
Bit rate mode               : Variable
Bit rate                    : 96.0 kb/s
Channel(s)                  : 2 channels
Sampling rate               : 48.0 kHz
Frame rate                  : 41.667 FPS (1152 SPF)
Compression mode            : Lossy
Stream size                 : 90.8 MiB (4%)
Writing library             : LAME3.99r
Encoding settings           : -m j -V 4 -q 3 -lowpass 15.1 --abr 96
Language                    : Telugu
Default                     : Yes
Forced                      : No

Audio #2
ID                          : 3
Format                      : MPEG Audio
Format version              : Version 1
Format profile              : Layer 3
Mode                        : Joint stereo
Mode extension              : MS Stereo
Codec ID                    : A_MPEG/L3
Codec ID/Hint               : MP3
Duration                    : 2 h 10 min
Bit rate mode               : Variable
Bit rate                    : 88.5 kb/s
Nominal bit rate            : 96.0 kb/s
Channel(s)                  : 2 channels
Sampling rate               : 48.0 kHz
Frame rate                  : 41.667 FPS (1152 SPF)
Compression mode            : Lossy
Stream size                 : 82.6 MiB (4%)
Writing library             : LAME3.99r
Encoding settings           : -m j -V 4 -q 3 -lowpass 15.1 --abr 96
Language                    : Tamil
Default                     : No
Forced                      : No

Audio #3
ID                          : 4
Format                      : MPEG Audio
Format version              : Version 1
Format profile              : Layer 3
Mode                        : Joint stereo
Mode extension              : MS Stereo
Codec ID                    : A_MPEG/L3
Codec ID/Hint               : MP3
Duration                    : 2 h 10 min
Bit rate mode               : Variable
Bit rate                    : 96.0 kb/s
Channel(s)                  : 2 channels
Sampling rate               : 48.0 kHz
Frame rate                  : 41.667 FPS (1152 SPF)
Compression mode            : Lossy
Stream size                 : 91.3 MiB (4%)
Writing library             : LAME3.99r
Encoding settings           : -m j -V 4 -q 3 -lowpass 15.1 --abr 96
Language                    : Hindi
Default                     : No
Forced                      : No

Audio #4
ID                          : 5
Format                      : MPEG Audio
Format version              : Version 1
Format profile              : Layer 3
Mode                        : Joint stereo
Mode extension              : MS Stereo
Codec ID                    : A_MPEG/L3
Codec ID/Hint               : MP3
Duration                    : 2 h 10 min
Bit rate mode               : Variable
Bit rate                    : 86.7 kb/s
Nominal bit rate            : 96.0 kb/s
Channel(s)                  : 2 channels
Sampling rate               : 48.0 kHz
Frame rate                  : 41.667 FPS (1152 SPF)
Compression mode            : Lossy
Stream size                 : 80.9 MiB (4%)
Writing library             : LAME3.99r
Encoding settings           : -m j -V 4 -q 3 -lowpass 15.1 --abr 96
Language                    : English
Default                     : No
Forced                      : No

Text
ID                          : 6
Format                      : UTF-8
Codec ID                    : S_TEXT/UTF8
Codec ID/Info               : UTF-8 Plain Text
Duration                    : 2 h 9 min
Bit rate                    : 49 b/s
Count of elements           : 1568
Stream size                 : 47.1 KiB (0%)
Language                    : English
Default                     : Yes
Forced                      : No

Menu
00:00:00.000                : :The Great Prophecy
00:06:20.005                : :The Tragedy Of Loki Of Asgard
00:14:11.017                : :A Worthy Inclusion
00:22:12.039                : :The Goddess Of Death
00:26:39.056                : :"Are You A Fighter, Or Are You Food?"
00:31:29.054                : :Heiress Apparent
00:35:03.018                : :The Grandmaster
00:42:49.067                : :The Eternal Flame
00:48:30.032                : :The Contest Of Champions
00:59:38.075                : :The Resistance
01:07:58.074                : :Hotheaded Fools
01:17:30.020                : :The Revengers
01:27:25.157                : :"The Revolution Has Begun"
01:36:08.054                : :Ready For War
01:42:35.066                : :"Asgard Is Not A Place"
01:49:20.012                : :"What Were You The God Of Again?"
01:54:57.015                : :Ragnarok
02:00:37.105                : :End Credits



Thor Ragnarok (2017) 1080p HDRip x264 Esub [Multi Audios][Hindi+Telugu+Tamil+English]Thor Ragnarok (2017) 1080p HDRip x264 Esub [Multi Audios][Hindi+Telugu+Tamil+English]Thor Ragnarok (2017) 1080p HDRip x264 Esub [Multi Audios][Hindi+Telugu+Tamil+English]Thor Ragnarok (2017) 1080p HDRip x264 Esub [Multi Audios][Hindi+Telugu+Tamil+English]Thor Ragnarok (2017) 1080p HDRip x264 Esub [Multi Audios][Hindi+Telugu+Tamil+English]Thor Ragnarok (2017) 1080p HDRip x264 Esub [Multi Audios][Hindi+Telugu+Tamil+English]

Note :-


English Audio Original
Hindi Audio Cam Clear
Tamil Audio Cam Clear
Telugu Audio Cam Clear


SINGLE DIRECT FAST LINKS

https://www.heroupload.com/17f592d569a8552e/Thor.Ragnarok.2017.HDRip.1080p.Line.Auds.Hindi+Telugu+Tamil+English.mkv


http://filefloater.com/4hc/Thor.Ragnarok.2017.HDRip.1080p.Line.Auds.Hindi+Telugu+Tamil+English.mkv

700MB LINKS


https://www.heroupload.com/f6ec817434777982/Thor.Ragnarok.2017.HDRip.1080p.Line.Auds.Hindi+Telugu+Tamil+English.part1.rar
https://www.heroupload.com/aba0c6fbe1faac5e/Thor.Ragnarok.2017.HDRip.1080p.Line.Auds.Hindi+Telugu+Tamil+English.part2.rar
https://www.heroupload.com/99b0bd0d8a7bf82f/Thor.Ragnarok.2017.HDRip.1080p.Line.Auds.Hindi+Telugu+Tamil+English.part3.rar
https://www.heroupload.com/a6bf72fe90bce676/Thor.Ragnarok.2017.HDRip.1080p.Line.Auds.Hindi+Telugu+Tamil+English.part4.rar



http://filefloater.com/4hd/Thor.Ragnarok.2017.HDRip.1080p.Line.Auds.Hindi+Telugu+Tamil+English.part1.rar
http://filefloater.com/4he/Thor.Ragnarok.2017.HDRip.1080p.Line.Auds.Hindi+Telugu+Tamil+English.part2.rar
http://filefloater.com/4hf/Thor.Ragnarok.2017.HDRip.1080p.Line.Auds.Hindi+Telugu+Tamil+English.part3.rar
http://filefloater.com/4hg/Thor.Ragnarok.2017.HDRip.1080p.Line.Auds.Hindi+Telugu+Tamil+English.part4.rar


Tags: Thor

Comments:

Dear visitor, you went to the site as unregistered user
We encourage you to create an account or enter the site under your name

Add comment

Name:*
E-Mail:*
Text:
Bold Italic Underline Strike | Align left Center Align right | Insert smilies Insert link URLInsert protected URL Select color | Add Hidden Text Insert Quote Convert selected text from selection to Cyrillic (Russian) alphabet Insert spoiler
Enter the code: *

Create an account

Advertising