» » Without a Paddle Natures Calling (2004) 720p BluRay x264 Esub [Dual Audio][Hindi+Eng]

Without a Paddle Natures Calling (2004) 720p BluRay x264 Esub [Dual Audio][Hindi+Eng]

Without a Paddle Natures Calling (2004) 720p BluRay x264 Esub [Dual Audio][Hindi+Eng]








Format : Matroska
Format version : Version 4 / Version 2
File size : 762 MiB
Duration : 1 h 38 min
Overall bit rate : 1 078 kb/s
Movie name : Without a Paddle Natures Calling 2004

Video
Format : AVC
Codec ID : V_MPEG4/ISO/AVC
Duration : 1 h 38 min
Bit rate : 891 kb/s
Width : 1 280 pixels
Height : 544 pixels
Display aspect ratio : 2.35:1
Frame rate mode : Constant
Frame rate : 23.976 (24000/1001) FPS
Stream size : 630 MiB (83%)I
Writing library : x264 core 125 r2200 999b753

Audio #1
Format : AAC
Duration : 1 h 38 min
Bit rate : 89.6 kb/s
Channel(s) : 6 channels
Channel positions : Front: L C R, Side: L R, LFE
Sampling rate : 44.1 kHz
Frame rate : 43.066 FPS (1024 SPF)
Stream size : 63.4 MiB (8%)
Language : English

Audio #2
Format : AAC
Duration : 1 h 38 min
Bit rate : 96.0 kb/s
Channel(s) : 6 channels
Channel positions : Front: L C R, Side: L R, LFE
Sampling rate : 44.1 kHz
Frame rate : 43.066 FPS (1024 SPF)
Stream size : 67.4 MiB (9%)
Language : Hindi

Text
Language : English 




Without a Paddle Natures Calling (2004) 720p BluRay x264 Esub [Dual Audio][Hindi+Eng]
Without a Paddle Natures Calling (2004) 720p BluRay x264 Esub [Dual Audio][Hindi+Eng]
Without a Paddle Natures Calling (2004) 720p BluRay x264 Esub [Dual Audio][Hindi+Eng]


SINGLE DIRECT FAST LINKS

https://www.heroupload.com/e04cef7dfc62f6f2/Without_a_Paddle_Natures_Calling_2004_720p_Esub_BluRay_Dual_Audio_English_Hindi_GOPISAHI.mkv




Tags: Without

Comments:

Dear visitor, you went to the site as unregistered user
We encourage you to create an account or enter the site under your name

Add comment

Name:*
E-Mail:*
Text:
Bold Italic Underline Strike | Align left Center Align right | Insert smilies Insert link URLInsert protected URL Select color | Add Hidden Text Insert Quote Convert selected text from selection to Cyrillic (Russian) alphabet Insert spoiler
Enter the code: *

Create an account

Advertising