» » Kingsman The Golden Circle (2017) 1080p BluRay x264 DD5.1 [Dual Audio][Hindi+English]

Kingsman The Golden Circle (2017) 1080p BluRay x264 DD5.1 [Dual Audio][Hindi+English]

Kingsman The Golden Circle (2017) 1080p BluRay x264 DD5.1 [Dual Audio][Hindi+English]





Movie Name :  Kingsman The Golden Circle 2017
IMDB Link : www.imdb.com/title/tt4649466/
Runtime : 2.21 Min
Audio : English Bluray DD 5.1/Hindi Bluray DD 5.1(MrRajput Thanks!)
Subtitle : English PGS/ Hindi PGS
Size : 6.10GB

Video
ID : 1
Format : AVC
Format/Info : Advanced Video Codec
Format profile : High@L4.1
Format settings : CABAC / 5 Ref Frames
Format settings, CABAC : Yes
Format settings, RefFrames : 5 frames
Codec ID : V_MPEG4/ISO/AVC
Duration : 2 h 21 min
Bit rate : 5 000 kb/s
Width : 1 920 pixels
Height : 804 pixels
Display aspect ratio : 2.40:1
Frame rate mode : Constant
Frame rate : 23.976 (24000/1001) FPS
Color space : YUV
Chroma subsampling : 4:2:0
Bit depth : 8 bits
Scan type : Progressive
Bits/(Pixel*Frame) : 0.135
Stream size : 4.93 GiB (81%)
Title : Kingsman The Golden Circle 2017 1080p Dual Audio Hindi DD 5.1 English DD 5.1 MAVI
Writing library : x264 core 142 r2431 ac76440
Language : English
Default : Yes
Forced : No
Color range : Limited
Color primaries : Generic film
Transfer characteristics : BT.709
Matrix coefficients : BT.709

Audio #1
ID : 2
Format : AC-3
Format/Info : Audio Coding 3
Codec ID : A_AC3
Duration : 2 h 21 min
Bit rate mode : Constant
Bit rate : 448 kb/s
Channel(s) : 6 channels
Channel positions : Front: L C R, Side: L R, LFE
Sampling rate : 48.0 kHz
Frame rate : 31.250 FPS (1536 SPF)
Bit depth : 16 bits
Compression mode : Lossy
Stream size : 452 MiB (7%)
Title : Org Bluray DD 5.1 448kbps
Language : Hindi
Service kind : Complete Main
Default : No
Forced : No

Audio #2
ID : 3
Format : AC-3
Format/Info : Audio Coding 3
Codec ID : A_AC3
Duration : 2 h 21 min
Bit rate mode : Constant
Bit rate : 640 kb/s
Channel(s) : 6 channels
Channel positions : Front: L C R, Side: L R, LFE
Sampling rate : 48.0 kHz
Frame rate : 31.250 FPS (1536 SPF)
Bit depth : 16 bits
Compression mode : Lossy
Stream size : 646 MiB (10%)
Title : Org Bluray DD 5.1 640kbps
Language : English
Service kind : Complete Main
Default : Yes
Forced : No

Text #1
ID : 4
Format : PGS
Codec ID : S_HDMV/PGS
Codec ID/Info : Picture based subtitle format used on BDs/HD-DVDs
Duration : 2 h 19 min
Bit rate : 27.2 kb/s
Count of elements : 3410
Stream size : 27.1 MiB (0%)
Title : Hindi-PGS
Language : Hindi
Default : No
Forced : No

Text #2
ID : 5
Format : PGS
Codec ID : S_HDMV/PGS
Codec ID/Info : Picture based subtitle format used on BDs/HD-DVDs
Duration : 1 h 0 min
Bit rate : 89 b/s
Count of elements : 12
Stream size : 39.5 KiB (0%)
Title : English-Forced-PGS
Language : English
Default : No
Forced : No

Text #3
ID : 6
Format : PGS
Codec ID : S_HDMV/PGS
Codec ID/Info : Picture based subtitle format used on BDs/HD-DVDs
Duration : 2 h 13 min
Bit rate : 34.1 kb/s
Count of elements : 3338
Stream size : 32.5 MiB (1%)
Title : English-PGS
Language : English
Default : No
Forced : No

Text #4
ID : 7
Format : PGS
Codec ID : S_HDMV/PGS
Codec ID/Info : Picture based subtitle format used on BDs/HD-DVDs
Duration : 2 h 13 min
Bit rate : 40.4 kb/s
Count of elements : 4284
Stream size : 38.5 MiB (1%)
Title : English-SDH-PGS
Language : English
Default : Yes
Forced : No

Menu
00:00:00.000 : en:Chapter 01
00:04:51.958 : en:Chapter 02
00:09:39.453 : en:Chapter 03
00:13:36.607 : en:Chapter 04
00:18:54.299 : en:Chapter 05
00:24:57.287 : en:Chapter 06
00:28:43.346 : en:Chapter 07
00:32:52.303 : en:Chapter 08
00:39:18.731 : en:Chapter 09
00:43:21.849 : en:Chapter 10
00:48:26.570 : en:Chapter 11
00:53:54.105 : en:Chapter 12
00:58:31.257 : en:Chapter 13
01:05:04.901 : en:Chapter 14
01:09:52.521 : en:Chapter 15
01:13:34.743 : en:Chapter 16
01:19:41.860 : en:Chapter 17
01:23:45.103 : en:Chapter 18
01:28:55.288 : en:Chapter 19
01:33:25.224 : en:Chapter 20
01:40:14.758 : en:Chapter 21
01:45:03.255 : en:Chapter 22
01:49:38.488 : en:Chapter 23
01:55:15.992 : en:Chapter 24
02:01:40.835 : en:Chapter 25
02:05:44.036 : en:Chapter 26
02:12:36.406 : en:Chapter 27
02:15:15.273 : en:Chapter 28 




Kingsman The Golden Circle (2017) 1080p BluRay x264 DD5.1 [Dual Audio][Hindi+English]
Kingsman The Golden Circle (2017) 1080p BluRay x264 DD5.1 [Dual Audio][Hindi+English]
Kingsman The Golden Circle (2017) 1080p BluRay x264 DD5.1 [Dual Audio][Hindi+English]
Kingsman The Golden Circle (2017) 1080p BluRay x264 DD5.1 [Dual Audio][Hindi+English]
Kingsman The Golden Circle (2017) 1080p BluRay x264 DD5.1 [Dual Audio][Hindi+English]
Kingsman The Golden Circle (2017) 1080p BluRay x264 DD5.1 [Dual Audio][Hindi+English]
Kingsman The Golden Circle (2017) 1080p BluRay x264 DD5.1 [Dual Audio][Hindi+English]
Kingsman The Golden Circle (2017) 1080p BluRay x264 DD5.1 [Dual Audio][Hindi+English]
Kingsman The Golden Circle (2017) 1080p BluRay x264 DD5.1 [Dual Audio][Hindi+English]
Kingsman The Golden Circle (2017) 1080p BluRay x264 DD5.1 [Dual Audio][Hindi+English]

SINGLE DIRECT FAST LINKS

https://www.heroupload.com/dc5c0079665b4ae8/Kingsman.The.Golden.Circle.2017.1080p.Dual.Audio.Hindi.DD5.1.English.DD5.1-MAVI.mkv


1GB LINKS


https://www.heroupload.com/985c5e7c307e6c2d/Kingsman.The.Golden.Circle.2017.1080p.Dual.Audio.Hindi.DD5.1.English.DD5.1-MAVI.part1.rar
https://www.heroupload.com/7cdb2cd1fe337117/Kingsman.The.Golden.Circle.2017.1080p.Dual.Audio.Hindi.DD5.1.English.DD5.1-MAVI.part2.rar
https://www.heroupload.com/d6a901b9f7163094/Kingsman.The.Golden.Circle.2017.1080p.Dual.Audio.Hindi.DD5.1.English.DD5.1-MAVI.part3.rar
https://www.heroupload.com/a6a8fd2ff0c5e971/Kingsman.The.Golden.Circle.2017.1080p.Dual.Audio.Hindi.DD5.1.English.DD5.1-MAVI.part4.rar
https://www.heroupload.com/c1b1273e63769e19/Kingsman.The.Golden.Circle.2017.1080p.Dual.Audio.Hindi.DD5.1.English.DD5.1-MAVI.part5.rar
https://www.heroupload.com/7116046141f5cb64/Kingsman.The.Golden.Circle.2017.1080p.Dual.Audio.Hindi.DD5.1.English.DD5.1-MAVI.part6.rar
https://www.heroupload.com/47b9fce4ee271af7/Kingsman.The.Golden.Circle.2017.1080p.Dual.Audio.Hindi.DD5.1.English.DD5.1-MAVI.part7.rar


Tags: Kingsman

Comments:

Dear visitor, you went to the site as unregistered user
We encourage you to create an account or enter the site under your name

Add comment

Name:*
E-Mail:*
Text:
Bold Italic Underline Strike | Align left Center Align right | Insert smilies Insert link URLInsert protected URL Select color | Add Hidden Text Insert Quote Convert selected text from selection to Cyrillic (Russian) alphabet Insert spoiler
Enter the code: *

Create an account

Partner Site

Advertising