» » Kingsman The Golden Circle (2017) 720p BluRay x264 DD5.1 [Dual Audio][Hindi+English]

Kingsman The Golden Circle (2017) 720p BluRay x264 DD5.1 [Dual Audio][Hindi+English]

Kingsman The Golden Circle (2017) 720p BluRay x264 DD5.1 [Dual Audio][Hindi+English]








Format                                   : Matroska
Format version                           : Version 4 / Version 2
File size                                : 1.77 GiB
Duration                                 : 2 h 21 min
Overall bit rate                         : 1 798 kb/s
Movie name                               : Kingsman The Golden Circle 2017 720p Bluray x264 Dual Audio [Hindi 5.0 Untouched + Eng 2.0] - Msub ~ Ranvijay

Video
ID                                       : 1
Format                                   : AVC
Duration                                 : 2 h 21 min
Bit rate                                 : 1 229 kb/s
Width                                    : 1 280 pixels
Height                                   : 536 pixels
Display aspect ratio                     : 2.40:1
Frame rate mode                          : Constant
Frame rate                               : 23.976 (24000/1001) FPS
Stream size                              : 1.21 GiB (68%)
Title                                    : ~Ranvijay~
Default                                  : Yes
Forced                                   : No

Audio #1
ID                                       : 2
Format                                   : AC-3
Format/Info                              : Audio Coding 3
Codec ID                                 : A_AC3
Duration                                 : 2 h 21 min
Bit rate mode                            : Constant
Bit rate                                 : 448 kb/s
Channel(s)                               : 6 channels
Channel positions                        : Front: L C R, Side: L R, LFE
Sampling rate                            : 48.0 kHz
Frame rate                               : 31.250 FPS (1536 SPF)
Bit depth                                : 16 bits
Compression mode                         : Lossy
Stream size                              : 452 MiB (25%)
Title                                    : ~Ranvijay~
Language                                 : Hindi
Service kind                             : Complete Main
Default                                  : Yes
Forced                                   : No

Audio #2
ID                                       : 3
Format                                   : AAC
Format/Info                              : Advanced Audio Codec
Format profile                           : HE-AAC / LC
Format settings                          : Explicit
Codec ID                                 : A_AAC-2
Duration                                 : 2 h 21 min
Bit rate                                 : 100.0 kb/s
Channel(s)                               : 2 channels
Channel positions                        : Front: L R
Sampling rate                            : 48.0 kHz / 24.0 kHz
Frame rate                               : 23.438 FPS (1024 SPF)
Compression mode                         : Lossy
Delay relative to video                  : 31 ms
Stream size                              : 101 MiB (6%)
Title                                    : ~Ranvijay~
Language                                 : English
Default                                  : No
Forced                                   : No

Text #1
ID                                       : 4
Format                                   : PGS
Muxing mode                              : zlib
Codec ID                                 : S_HDMV/PGS
Codec ID/Info                            : Picture based subtitle format used on BDs/HD-DVDs
Duration                                 : 2 h 19 min
Bit rate                                 : 27.2 kb/s
Count of elements                        : 3410
Stream size                              : 27.1 MiB (1%)
Title                                    : ~Ranvijay~
Language                                 : Hindi
Default                                  : Yes
Forced                                   : No

Text #2
ID                                       : 5
Format                                   : PGS
Muxing mode                              : zlib
Codec ID                                 : S_HDMV/PGS
Codec ID/Info                            : Picture based subtitle format used on BDs/HD-DVDs
Duration                                 : 2 h 13 min
Bit rate                                 : 34.1 kb/s
Count of elements                        : 3338
Stream size                              : 32.5 MiB (2%)
Title                                    : ~Ranvijay~
Language                                 : English
Default                                  : No
Forced                                   : No 




Kingsman The Golden Circle (2017) 720p BluRay x264 DD5.1 [Dual Audio][Hindi+English]
Kingsman The Golden Circle (2017) 720p BluRay x264 DD5.1 [Dual Audio][Hindi+English]
Kingsman The Golden Circle (2017) 720p BluRay x264 DD5.1 [Dual Audio][Hindi+English]
Kingsman The Golden Circle (2017) 720p BluRay x264 DD5.1 [Dual Audio][Hindi+English]
Kingsman The Golden Circle (2017) 720p BluRay x264 DD5.1 [Dual Audio][Hindi+English]
Kingsman The Golden Circle (2017) 720p BluRay x264 DD5.1 [Dual Audio][Hindi+English]
Kingsman The Golden Circle (2017) 720p BluRay x264 DD5.1 [Dual Audio][Hindi+English]
Kingsman The Golden Circle (2017) 720p BluRay x264 DD5.1 [Dual Audio][Hindi+English]
Kingsman The Golden Circle (2017) 720p BluRay x264 DD5.1 [Dual Audio][Hindi+English]
Kingsman The Golden Circle (2017) 720p BluRay x264 DD5.1 [Dual Audio][Hindi+English]
Kingsman The Golden Circle (2017) 720p BluRay x264 DD5.1 [Dual Audio][Hindi+English]
Kingsman The Golden Circle (2017) 720p BluRay x264 DD5.1 [Dual Audio][Hindi+English]
Kingsman The Golden Circle (2017) 720p BluRay x264 DD5.1 [Dual Audio][Hindi+English]
Kingsman The Golden Circle (2017) 720p BluRay x264 DD5.1 [Dual Audio][Hindi+English]
Kingsman The Golden Circle (2017) 720p BluRay x264 DD5.1 [Dual Audio][Hindi+English]
Kingsman The Golden Circle (2017) 720p BluRay x264 DD5.1 [Dual Audio][Hindi+English]
Kingsman The Golden Circle (2017) 720p BluRay x264 DD5.1 [Dual Audio][Hindi+English]

SINGLE DIRECT FAST LINKS

https://www.heroupload.com/4e3f14b44ece1443/Kingsman-The.Golden.Circle.2017.720p.Bluray.x264.Dual.Audio.Hindi.5.0.Untouched+English.2.0.Msub-Ranvijay.mkv


Tags: Kingsman

Comments:

Dear visitor, you went to the site as unregistered user
We encourage you to create an account or enter the site under your name

Add comment

Name:*
E-Mail:*
Text:
Bold Italic Underline Strike | Align left Center Align right | Insert smilies Insert link URLInsert protected URL Select color | Add Hidden Text Insert Quote Convert selected text from selection to Cyrillic (Russian) alphabet Insert spoiler
Enter the code: *

Create an account

Partner Site

Advertising