» » It (2017) 720p BluRay x264 DD5.1 Esub [Dual Audio][Hindi+English] - Ranvijay

It (2017) 720p BluRay x264 DD5.1 Esub [Dual Audio][Hindi+English] - Ranvijay

It (2017) 720p BluRay x264 DD5.1 Esub [Dual Audio][Hindi+English] - Ranvijay






Format                                   : Matroska
Format version                           : Version 4 / Version 2
File size                                : 1.67 GiB
Duration                                 : 2 h 14 min
Overall bit rate                         : 1 780 kb/s
Movie name                               : It 2017 720p BluRay x264 Dual Audio [Hindi 5.0 + Eng 2.0] - Esub ~ Ranvijay

Video
ID                                       : 1
Format                                   : AVC
Format settings, RefFrames               : 9 frames
Codec ID                                 : V_MPEG4/ISO/AVC
Duration                                 : 2 h 14 min
Bit rate                                 : 1 230 kb/s
Width                                    : 1 280 pixels
Height                                   : 536 pixels
Display aspect ratio                     : 2.40:1
Frame rate mode                          : Constant
Frame rate                               : 23.976 (24000/1001) FPS
Stream size                              : 1.16 GiB (69%)
Title                                    : ~Ranvijay~
Default                                  : Yes
Forced                                   : No

Audio #1
ID                                       : 2
Format                                   : AAC
Format/Info                              : Advanced Audio Codec
Format profile                           : HE-AAC / LC
Format settings                          : Explicit
Codec ID                                 : A_AAC-2
Duration                                 : 2 h 14 min
Bit rate                                 : 100.0 kb/s
Channel(s)                               : 2 channels
Channel positions                        : Front: L R
Sampling rate                            : 48.0 kHz / 24.0 kHz
Frame rate                               : 23.438 FPS (1024 SPF)
Compression mode                         : Lossy
Delay relative to video                  : 31 ms
Stream size                              : 96.3 MiB (6%)
Title                                    : ~Ranvijay~
Language                                 : English
Default                                  : No
Forced                                   : No

Audio #2
ID                                       : 4
Format                                   : AC-3
Format/Info                              : Audio Coding 3
Codec ID                                 : A_AC3
Duration                                 : 2 h 14 min
Bit rate mode                            : Constant
Bit rate                                 : 448 kb/s
Channel(s)                               : 6 channels
Channel positions                        : Front: L C R, Side: L R, LFE
Sampling rate                            : 48.0 kHz
Frame rate                               : 31.250 FPS (1536 SPF)
Bit depth                                : 16 bits
Compression mode                         : Lossy
Stream size                              : 432 MiB (25%)
Title                                    : ~Ranvijay~
Language                                 : Hindi
Service kind                             : Complete Main
Default                                  : Yes
Forced                                   : No

Text
ID                                       : 3
Format                                   : UTF-8
Codec ID                                 : S_TEXT/UTF8
Codec ID/Info                            : UTF-8 Plain Text
Duration                                 : 2 h 14 min
Bit rate                                 : 50 b/s
Count of elements                        : 1813
Stream size                              : 49.6 KiB (0%)
Title                                    : ~Ranvijay~
Language                                 : English
Default                                  : Yes
Forced                                   : No





It (2017) 720p BluRay x264 DD5.1 Esub [Dual Audio][Hindi+English] - Ranvijay
It (2017) 720p BluRay x264 DD5.1 Esub [Dual Audio][Hindi+English] - Ranvijay
It (2017) 720p BluRay x264 DD5.1 Esub [Dual Audio][Hindi+English] - Ranvijay
It (2017) 720p BluRay x264 DD5.1 Esub [Dual Audio][Hindi+English] - Ranvijay
It (2017) 720p BluRay x264 DD5.1 Esub [Dual Audio][Hindi+English] - Ranvijay
It (2017) 720p BluRay x264 DD5.1 Esub [Dual Audio][Hindi+English] - Ranvijay
It (2017) 720p BluRay x264 DD5.1 Esub [Dual Audio][Hindi+English] - Ranvijay
It (2017) 720p BluRay x264 DD5.1 Esub [Dual Audio][Hindi+English] - Ranvijay
It (2017) 720p BluRay x264 DD5.1 Esub [Dual Audio][Hindi+English] - Ranvijay
It (2017) 720p BluRay x264 DD5.1 Esub [Dual Audio][Hindi+English] - Ranvijay

SINGLE DIRECT FAST LINKS

http://www.heroupload.com/d8f3608d3fe999ec/It.2017.720p.BluRay.x264.Dual.Audio.Hindi.5.0+English.2.0.Esub-Ranvijay.mkv



Tags: It

Comments:

Dear visitor, you went to the site as unregistered user
We encourage you to create an account or enter the site under your name

Add comment

Name:*
E-Mail:*
Text:
Bold Italic Underline Strike | Align left Center Align right | Insert smilies Insert link URLInsert protected URL Select color | Add Hidden Text Insert Quote Convert selected text from selection to Cyrillic (Russian) alphabet Insert spoiler
Enter the code: *

Create an account

Partner Site

Advertising