» » Mercury Rising (1998) 720p BDRip x264 Esubs [Multi Audio][Tamil+Telugu+Hindi+Eng]

Mercury Rising (1998) 720p BDRip x264 Esubs [Multi Audio][Tamil+Telugu+Hindi+Eng]

Mercury Rising (1998) 720p BDRip x264 Esubs [Multi Audio][Tamil+Telugu+Hindi+Eng]





Format                      : Matroska
Format version              : Version 4 / Version 2
File size                   : 803 MiB
Duration                    : 1 h 51 min
Overall bit rate            : 1 008 kb/s
Encoded date                : UTC 2017-12-18 07:26:47
Writing application         : mkvmerge v7.8.0 ('River Man') 64bit built on Mar 27 2015 16:31:37
Writing library             : libebml v1.3.1 + libmatroska v1.4.2

Video
ID                          : 1
Format                      : AVC
Format/Info                 : Advanced Video Codec
Format profile              : High@L3.1
Format settings, CABAC      : Yes
Format settings, RefFrames  : 4 frames
Codec ID                    : V_MPEG4/ISO/AVC
Duration                    : 1 h 51 min
Bit rate                    : 650 kb/s
Width                       : 1 280 pixels
Height                      : 544 pixels
Display aspect ratio        : 2.35:1
Frame rate mode             : Constant
Frame rate                  : 23.976 (23976/1000) FPS
Color space                 : YUV
Chroma subsampling          : 4:2:0
Bit depth                   : 8 bits
Scan type                   : Progressive
Bits/(Pixel*Frame)          : 0.039
Stream size                 : 517 MiB (64%)
Language                    : English
Default                     : Yes
Forced                      : Yes

Audio #1
ID                          : 2
Format                      : AAC
Format/Info                 : Advanced Audio Codec
Format profile              : LC
Codec ID                    : A_AAC
Duration                    : 1 h 51 min
Bit rate                    : 96.0 kb/s
Channel(s)                  : 2 channels
Channel positions           : Front: L R
Sampling rate               : 44.1 kHz
Frame rate                  : 43.066 FPS (1024 SPF)
Compression mode            : Lossy
Stream size                 : 76.4 MiB (10%)
Language                    : Tamil
Default                     : Yes
Forced                      : Yes

Audio #2
ID                          : 3
Format                      : MPEG Audio
Format version              : Version 1
Format profile              : Layer 3
Mode                        : Joint stereo
Mode extension              : MS Stereo
Codec ID                    : A_MPEG/L3
Codec ID/Hint               : MP3
Duration                    : 1 h 51 min
Bit rate mode               : Constant
Bit rate                    : 128 kb/s
Channel(s)                  : 2 channels
Sampling rate               : 44.1 kHz
Frame rate                  : 38.281 FPS (1152 SPF)
Compression mode            : Lossy
Stream size                 : 102 MiB (13%)
Writing library             : LAME3.98.2
Language                    : Telugu
Default                     : No
Forced                      : No

Audio #3
ID                          : 4
Format                      : MPEG Audio
Format version              : Version 1
Format profile              : Layer 3
Mode                        : Joint stereo
Mode extension              : MS Stereo
Codec ID                    : A_MPEG/L3
Codec ID/Hint               : MP3
Duration                    : 1 h 51 min
Bit rate mode               : Constant
Bit rate                    : 96.0 kb/s
Channel(s)                  : 2 channels
Sampling rate               : 44.1 kHz
Frame rate                  : 38.281 FPS (1152 SPF)
Compression mode            : Lossy
Stream size                 : 76.4 MiB (10%)
Writing library             : LAME3.98
Language                    : Hindi
Default                     : No
Forced                      : No

Audio #4
ID                          : 5
Format                      : AAC
Format/Info                 : Advanced Audio Codec
Format profile              : HE-AAC / LC
Codec ID                    : A_AAC
Duration                    : 1 h 51 min
Bit rate                    : 35.0 kb/s
Channel(s)                  : 2 channels
Channel positions           : Front: L R
Sampling rate               : 48.0 kHz / 24.0 kHz
Frame rate                  : 23.438 FPS (1024 SPF)
Compression mode            : Lossy
Stream size                 : 27.9 MiB (3%)
Language                    : English
Default                     : No
Forced                      : No

Text
ID                          : 6
Format                      : ASS
Codec ID                    : S_TEXT/ASS
Codec ID/Info               : Advanced Sub Station Alpha
Duration                    : 1 h 10 min
Bit rate                    : 0 b/s
Count of elements           : 7
Compression mode            : Lossless
Stream size                 : 516 Bytes (0%)
Language                    : English
Default                     : Yes
Forced                      : Yes



Mercury Rising (1998) 720p BDRip x264 Esubs [Multi Audio][Tamil+Telugu+Hindi+Eng]Mercury Rising (1998) 720p BDRip x264 Esubs [Multi Audio][Tamil+Telugu+Hindi+Eng]Mercury Rising (1998) 720p BDRip x264 Esubs [Multi Audio][Tamil+Telugu+Hindi+Eng]Mercury Rising (1998) 720p BDRip x264 Esubs [Multi Audio][Tamil+Telugu+Hindi+Eng]Mercury Rising (1998) 720p BDRip x264 Esubs [Multi Audio][Tamil+Telugu+Hindi+Eng]Mercury Rising (1998) 720p BDRip x264 Esubs [Multi Audio][Tamil+Telugu+Hindi+Eng]


SINGLE DIRECT FAST LINKS


http://www.heroupload.com/776ec56c380a534c/Mercury.Rising.1998.720p.BDRip.Tamil+Telugu+Hindi+English.mkv



Tags: Mercury

Comments:

Dear visitor, you went to the site as unregistered user
We encourage you to create an account or enter the site under your name

Add comment

Name:*
E-Mail:*
Text:
Bold Italic Underline Strike | Align left Center Align right | Insert smilies Insert link URLInsert protected URL Select color | Add Hidden Text Insert Quote Convert selected text from selection to Cyrillic (Russian) alphabet Insert spoiler
Enter the code: *

Create an account

Advertising