» » Star Wars The Last Jedi (2017) Hindi - 700MB - 1CDRip - HD-CAMRip - x264 - AAC-Exclus

Star Wars The Last Jedi (2017) Hindi - 700MB - 1CDRip - HD-CAMRip - x264 - AAC-Exclus

Star Wars The Last Jedi (2017) Hindi - 700MB - 1CDRip - HD-CAMRip - x264 - AAC-Exclus






General
Format                      : Matroska
Format version              : Version 4 / Version 2
File size                   : 683 MiB
Duration                    : 2 h 23 min
Overall bit rate mode       : Variable
Overall bit rate            : 665 kb/s
Encoded date                : UTC 2017-12-16 16:21:54
Writing application         : mkvmerge v7.0.0 ('Where We Going') 32bit built on Jun  9 2014 15:08:34
Writing library             : libebml v1.3.0 + libmatroska v1.4.1

Video
ID                          : 1
Format                      : AVC
Format/Info                 : Advanced Video Codec
Format profile              : Main@L3
Format settings, CABAC      : Yes
Format settings, RefFrames  : 4 frames
Codec ID                    : V_MPEG4/ISO/AVC
Duration                    : 2 h 23 min
Bit rate                    : 569 kb/s
Width                       : 720 pixels
Height                      : 320 pixels
Display aspect ratio        : 2.25:1
Frame rate mode             : Constant
Frame rate                  : 30.000 FPS
Color space                 : YUV
Chroma subsampling          : 4:2:0
Bit depth                   : 8 bits
Scan type                   : Progressive
Bits/(Pixel*Frame)          : 0.082
Stream size                 : 581 MiB (85%)
Writing library             : x264 core 112
Encoding settings           : cabac=1 / ref=2 / deblock=1:0:0 / analyse=0x1:0x111 / me=hex / subme=6 / psy=1 / psy_rd=1.00:0.00 / mixed_ref=0 / me_range=16 / chroma_me=1 / trellis=0 / 8x8dct=0 / cqm=0 / deadzone=21,11 / fast_pskip=1 / chroma_qp_offset=-2 / threads=12 / sliced_threads=0 / nr=0 / decimate=1 / interlaced=0 / constrained_intra=0 / bframes=2 / b_pyramid=2 / b_adapt=1 / b_bias=0 / direct=1 / weightb=0 / open_gop=0 / weightp=2 / keyint=300 / keyint_min=30 / scenecut=40 / intra_refresh=0 / rc_lookahead=40 / rc=abr / mbtree=1 / bitrate=569 / ratetol=1.0 / qcomp=0.60 / qpmin=3 / qpmax=51 / qpstep=4 / ip_ratio=1.40 / aq=1:1.00
Language                    : English
Default                     : Yes
Forced                      : No
Color range                 : Limited
Color primaries             : BT.601 NTSC
Transfer characteristics    : BT.709
Matrix coefficients         : BT.601

Audio
ID                          : 2
Format                      : MPEG Audio
Format version              : Version 1
Format profile              : Layer 3
Mode                        : Joint stereo
Codec ID                    : A_MPEG/L3
Codec ID/Hint               : MP3
Duration                    : 2 h 23 min
Bit rate mode               : Variable
Bit rate                    : 96.0 kb/s
Channel(s)                  : 2 channels
Sampling rate               : 44.1 kHz
Frame rate                  : 38.281 FPS (1152 SPF)
Compression mode            : Lossy
Stream size                 : 99.1 MiB (15%)
Writing library             : LAME3.99r
Encoding settings           : -m j -V 4 -q 3 -lowpass 15.1 --abr 96
Language                    : Hindi
Default                     : Yes
Forced                      : No



Star Wars The Last Jedi (2017) Hindi - 700MB - 1CDRip - HD-CAMRip - x264 - AAC-ExclusStar Wars The Last Jedi (2017) Hindi - 700MB - 1CDRip - HD-CAMRip - x264 - AAC-ExclusStar Wars The Last Jedi (2017) Hindi - 700MB - 1CDRip - HD-CAMRip - x264 - AAC-ExclusStar Wars The Last Jedi (2017) Hindi - 700MB - 1CDRip - HD-CAMRip - x264 - AAC-ExclusStar Wars The Last Jedi (2017) Hindi - 700MB - 1CDRip - HD-CAMRip - x264 - AAC-ExclusStar Wars The Last Jedi (2017) Hindi - 700MB - 1CDRip - HD-CAMRip - x264 - AAC-ExclusStar Wars The Last Jedi (2017) Hindi - 700MB - 1CDRip - HD-CAMRip - x264 - AAC-ExclusStar Wars The Last Jedi (2017) Hindi - 700MB - 1CDRip - HD-CAMRip - x264 - AAC-ExclusStar Wars The Last Jedi (2017) Hindi - 700MB - 1CDRip - HD-CAMRip - x264 - AAC-Exclus


SINGLE DIRECT FAST LINKS


http://www.heroupload.com/ad9189b11038f540/Star.Wars.8.The.Last.Jedi.2017.Hindi.HDCAM-Rip.700MB.x264.1CD.AAC-Exclusive.mkv



Tags: Star

Comments:

Dear visitor, you went to the site as unregistered user
We encourage you to create an account or enter the site under your name

Add comment

Name:*
E-Mail:*
Text:
Bold Italic Underline Strike | Align left Center Align right | Insert smilies Insert link URLInsert protected URL Select color | Add Hidden Text Insert Quote Convert selected text from selection to Cyrillic (Russian) alphabet Insert spoiler
Enter the code: *

Create an account

Partner Site

Advertising