» » DJ Duvvada Jagannadham (2017) NW - 720p - HDRip - x264 - DD5.1 [Telugu+Hindi] SIDDU

DJ Duvvada Jagannadham (2017) NW - 720p - HDRip - x264 - DD5.1 [Telugu+Hindi] SIDDU

DJ Duvvada Jagannadham (2017) NW - 720p - HDRip - x264 - DD5.1 [Telugu+Hindi] SIDDU








Format                      : Matroska
Format version              : Version 4 / Version 2
File size                   : 1.23 GiB
Duration                    : 2 h 1 min
Overall bit rate            : 1 455 kb/s
Movie name                  : Siddu
Encoded date                : UTC 2017-12-07 08:41:36
Writing library             : libebml v1.3.5 + libmatroska v1.4.5

Video
ID                          : 1
Format                      : AVC
Format/Info                 : Advanced Video Codec
Format profile              : High@L3.1
Format settings, CABAC      : Yes
Format settings, RefFrames  : 4 frames
Format settings, GOP        : M=3, N=25
Codec ID                    : V_MPEG4/ISO/AVC
Duration                    : 2 h 1 min
Bit rate                    : 1 196 kb/s
Width                       : 1 280 pixels
Height                      : 720 pixels
Display aspect ratio        : 16:9
Frame rate mode             : Constant
Frame rate                  : 25.000 FPS
Color space                 : YUV
Chroma subsampling          : 4:2:0
Bit depth                   : 8 bits
Scan type                   : Progressive
Bits/(Pixel*Frame)          : 0.052
Stream size                 : 1.01 GiB (82%)
Title                       : Siddu
Writing library             : Zencoder Video Encoding System
Default                     : Yes
Forced                      : No
Color range                 : Limited
Color primaries             : BT.709
Transfer characteristics    : BT.709
Matrix coefficients         : BT.709

Audio #1
ID                          : 2
Format                      : AC-3
Format/Info                 : Audio Coding 3
Format settings, Endianness : Big
Codec ID                    : A_AC3
Duration                    : 2 h 1 min
Bit rate mode               : Constant
Bit rate                    : 160 kb/s
Channel(s)                  : 6 channels
Channel positions           : Front: L C R, Side: L R, LFE
Sampling rate               : 44.1 kHz
Frame rate                  : 28.711 FPS (1536 SPF)
Bit depth                   : 16 bits
Compression mode            : Lossy
Stream size                 : 139 MiB (11%)
Title                       : Siddu - Telugu
Language                    : Telugu
Service kind                : Complete Main
Default                     : No
Forced                      : No

Audio #2
ID                          : 3
Format                      : AAC
Format/Info                 : Advanced Audio Codec
Format profile              : LC
Codec ID                    : A_AAC
Duration                    : 2 h 1 min
Bit rate                    : 96.0 kb/s
Channel(s)                  : 2 channels
Channel positions           : Front: L R
Sampling rate               : 48.0 kHz
Frame rate                  : 46.875 FPS (1024 SPF)
Compression mode            : Lossy
Stream size                 : 83.3 MiB (7%)
Title                       : Siddu - Hindi
Language                    : Hindi
Default                     : Yes
Forced                      : No

Text
ID                          : 4
Format                      : UTF-8
Codec ID                    : S_TEXT/UTF8
Codec ID/Info               : UTF-8 Plain Text
Duration                    : 2 h 0 min
Bit rate                    : 85 b/s
Count of elements           : 2057
Stream size                 : 75.4 KiB (0%)
Title                       : Siddu
Language                    : English
Default                     : Yes
Forced                      : No





DJ Duvvada Jagannadham (2017) NW - 720p - HDRip - x264 - DD5.1 [Telugu+Hindi] SIDDU
DJ Duvvada Jagannadham (2017) NW - 720p - HDRip - x264 - DD5.1 [Telugu+Hindi] SIDDU
DJ Duvvada Jagannadham (2017) NW - 720p - HDRip - x264 - DD5.1 [Telugu+Hindi] SIDDU
DJ Duvvada Jagannadham (2017) NW - 720p - HDRip - x264 - DD5.1 [Telugu+Hindi] SIDDU
DJ Duvvada Jagannadham (2017) NW - 720p - HDRip - x264 - DD5.1 [Telugu+Hindi] SIDDU
DJ Duvvada Jagannadham (2017) NW - 720p - HDRip - x264 - DD5.1 [Telugu+Hindi] SIDDU
DJ Duvvada Jagannadham (2017) NW - 720p - HDRip - x264 - DD5.1 [Telugu+Hindi] SIDDU
DJ Duvvada Jagannadham (2017) NW - 720p - HDRip - x264 - DD5.1 [Telugu+Hindi] SIDDU
DJ Duvvada Jagannadham (2017) NW - 720p - HDRip - x264 - DD5.1 [Telugu+Hindi] SIDDU
DJ Duvvada Jagannadham (2017) NW - 720p - HDRip - x264 - DD5.1 [Telugu+Hindi] SIDDU
DJ Duvvada Jagannadham (2017) NW - 720p - HDRip - x264 - DD5.1 [Telugu+Hindi] SIDDU
DJ Duvvada Jagannadham (2017) NW - 720p - HDRip - x264 - DD5.1 [Telugu+Hindi] SIDDU


SINGLE DIRECT FAST LINKS

http://www.heroupload.com/7e7c48972cea2e00/DJ.Duvvada.Jagannadham.2017.No.Watermark.UNTOUCHED.720p.HDRip.Telugu.5.1.Hindi.2.0.Dual.Audio.ESub-SIDDU.mkv



Tags: DJ

Comments:

Dear visitor, you went to the site as unregistered user
We encourage you to create an account or enter the site under your name

Add comment

Name:*
E-Mail:*
Text:
Bold Italic Underline Strike | Align left Center Align right | Insert smilies Insert link URLInsert protected URL Select color | Add Hidden Text Insert Quote Convert selected text from selection to Cyrillic (Russian) alphabet Insert spoiler
Enter the code: *

Create an account

Partner Site

Advertising