» » Game of Thrones S02E06 720p BluRay x264 [Dual-Audio][Hindi English] KMHD

Game of Thrones S02E06 720p BluRay x264 [Dual-Audio][Hindi English] KMHD

Game of Thrones S02E06 720p BluRay x264 [Dual-Audio][Hindi English] KMHD





Format                      : Matroska
Format version              : Version 4 / Version 2
File size                   : 507 MiB
Duration                    : 53 min 59 s
Overall bit rate            : 1 312 kb/s
Encoded date                : UTC 2018-09-30 09:31:08
Writing application         : mkvmerge v26.0.0 ('In The Game') 64-bit
Writing library             : libebml v1.3.6 + libmatroska v1.4.9

Video
ID                          : 1
Format                      : AVC
Format/Info                 : Advanced Video Codec
Format profile              : High@L4.1
Format settings, CABAC      : Yes
Format settings, RefFrames  : 8 frames
Codec ID                    : V_MPEG4/ISO/AVC
Duration                    : 53 min 59 s
Bit rate                    : 1 043 kb/s
Width                       : 1 280 pixels
Height                      : 720 pixels
Display aspect ratio        : 16:9
Frame rate mode             : Constant
Frame rate                  : 23.976 (24000/1001) FPS
Color space                 : YUV
Chroma subsampling          : 4:2:0
Bit depth                   : 8 bits
Scan type                   : Progressive
Bits/(Pixel*Frame)          : 0.047
Stream size                 : 403 MiB (79%)
Writing library             : x264 core 146 r2538 121396c
Encoding settings           : cabac=1 / ref=8 / deblock=1:-3:-3 / analyse=0x3:0x133 / me=umh / subme=10 / psy=1 / psy_rd=1.00:0.15 / mixed_ref=1 / me_range=16 / chroma_me=1 / trellis=2 / 8x8dct=1 / cqm=0 / deadzone=21,11 / fast_pskip=1 / chroma_qp_offset=-3 / threads=12 / lookahead_threads=1 / sliced_threads=0 / nr=0 / decimate=1 / interlaced=0 / bluray_compat=0 / constrained_intra=0 / bframes=3 / b_pyramid=2 / b_adapt=2 / b_bias=0 / direct=3 / weightb=1 / open_gop=0 / weightp=2 / keyint=250 / keyint_min=23 / scenecut=40 / intra_refresh=0 / rc_lookahead=60 / rc=crf / mbtree=1 / crf=24.0 / qcomp=0.60 / qpmin=0 / qpmax=69 / qpstep=4 / ip_ratio=1.40 / aq=1:1.00
Language                    : English
Default                     : Yes
Forced                      : No

Audio #1
ID                          : 2
Format                      : AAC
Format/Info                 : Advanced Audio Codec
Format profile              : LC
Codec ID                    : A_AAC
Duration                    : 53 min 58 s
Bit rate                    : 132 kb/s
Channel(s)                  : 2 channels
Channel positions           : Front: L R
Sampling rate               : 48.0 kHz
Frame rate                  : 46.875 FPS (1024 SPF)
Compression mode            : Lossy
Stream size                 : 50.1 MiB (10%)
Language                    : Hindi
Default                     : Yes
Forced                      : Yes

Audio #2
ID                          : 3
Format                      : AAC
Format/Info                 : Advanced Audio Codec
Format profile              : LC
Codec ID                    : A_AAC
Duration                    : 53 min 59 s
Bit rate                    : 136 kb/s
Channel(s)                  : 2 channels
Channel positions           : Front: L R
Sampling rate               : 48.0 kHz
Frame rate                  : 46.875 FPS (1024 SPF)
Compression mode            : Lossy
Delay relative to video     : 9 ms
Stream size                 : 52.6 MiB (10%)
Language                    : English
Default                     : No
Forced                      : No

Text
ID                          : 4
Format                      : UTF-8
Codec ID                    : S_TEXT/UTF8
Codec ID/Info               : UTF-8 Plain Text
Duration                    : 52 min 13 s
Bit rate                    : 61 b/s
Count of elements           : 767
Stream size                 : 23.6 KiB (0%)
Language                    : English
Default                     : Yes
Forced                      : No

Menu
00:00:00.000                : en:00:00:00.000
00:01:54.114                : en:00:01:54.114
00:10:03.603                : en:00:10:03.603
00:17:20.456                : en:00:17:20.456
00:23:42.004                : en:00:23:42.004
00:34:23.520                : en:00:34:23.520
00:42:25.460                : en:00:42:25.460
00:52:39.990                : en:00:52:39.990



Game of Thrones S02E06 720p BluRay x264 [Dual-Audio][Hindi English] KMHD
Game of Thrones S02E06 720p BluRay x264 [Dual-Audio][Hindi English] KMHD
Game of Thrones S02E06 720p BluRay x264 [Dual-Audio][Hindi English] KMHD
Game of Thrones S02E06 720p BluRay x264 [Dual-Audio][Hindi English] KMHD
Game of Thrones S02E06 720p BluRay x264 [Dual-Audio][Hindi English] KMHD
Game of Thrones S02E06 720p BluRay x264 [Dual-Audio][Hindi English] KMHD
Game of Thrones S02E06 720p BluRay x264 [Dual-Audio][Hindi English] KMHD
SINGLE DIRECT FAST LINKS

http://www.heroupload.us/b59fb1dccf3bd394/Game.of.Thrones.S02E06.Hindi.Bluray.720p.x264-KMHD.mkv



http://filefloater.com/1KT8/Game.of.Thrones.S02E06.Hindi.Bluray.720p.x264-KMHD.mkv


Buy Premium From My Links & Support Me

Tags: Game

Comments:

Dear visitor, you went to the site as unregistered user
We encourage you to create an account or enter the site under your name

Add comment

Name:*
E-Mail:*
Text:
Bold Italic Underline Strike | Align left Center Align right | Insert smilies Insert link URLInsert protected URL Select color | Add Hidden Text Insert Quote Convert selected text from selection to Cyrillic (Russian) alphabet Insert spoiler
Enter the code: *

Create an account

Advertising