» » Kingsman The Golden Circle (2017) 720p BluRay x264 Esub [Dual Audio] [Hindi+English]

Kingsman The Golden Circle (2017) 720p BluRay x264 Esub [Dual Audio] [Hindi+English]

Kingsman The Golden Circle (2017) 720p BluRay x264 Esub [Dual Audio] [Hindi+English]









Format : Matroska
Format version : Version 4 / Version 2
File size : 974 MiB
Duration : 2 h 21 min
Overall bit rate : 965 kb/s
Movie name : Kingsman The Golden Circle 2017

Video
Format : AVC
Codec ID : V_MPEG4/ISO/AVC
Duration : 2 h 21 min
Bit rate : 790 kb/s
Width : 1 280 pixels
Height : 534 pixels
Display aspect ratio : 2.40:1
Frame rate mode : Constant
Frame rate : 23.976 (24000/1001) FPS
Stream size : 797 MiB (82%)
Writing library : x264

Audio #1
Format : AAC
Duration : 2 h 21 min
Bit rate : 83.7 kb/s
Channel(s) : 6 channels
Channel positions : Front: L C R, Side: L R, LFE
Sampling rate : 44.1 kHz
Frame rate : 43.066 FPS (1024 SPF)
Stream size : 84.4 MiB (9%)
Language : English

Audio #2
Format : AAC
Duration : 2 h 20 min
Bit rate : 88.6 kb/s
Channel(s) : 6 channels
Channel positions : Front: L C R, Side: L R, LFE
Sampling rate : 44.1 kHz
Frame rate : 43.066 FPS (1024 SPF)
Stream size : 89.3 MiB (9%)
Language : Hindi

Text
Language : English 



Kingsman The Golden Circle (2017) 720p BluRay x264 Esub [Dual Audio] [Hindi+English]
Kingsman The Golden Circle (2017) 720p BluRay x264 Esub [Dual Audio] [Hindi+English]
Kingsman The Golden Circle (2017) 720p BluRay x264 Esub [Dual Audio] [Hindi+English]


SINGLE DIRECT FAST LINKS


http://www.heroupload.com/d25adc3dc5f77526/Kingsman_The_Golden_Circle_2017_GOPISAHI.mkv



Tags: Kingsman

Comments:

Dear visitor, you went to the site as unregistered user
We encourage you to create an account or enter the site under your name

Add comment

Name:*
E-Mail:*
Text:
Bold Italic Underline Strike | Align left Center Align right | Insert smilies Insert link URLInsert protected URL Select color | Add Hidden Text Insert Quote Convert selected text from selection to Cyrillic (Russian) alphabet Insert spoiler
Enter the code: *

Create an account

Partner Site

Advertising