» » Blackhat (2015) 720p BluRay x264 Esub [Dual Audio] [Hindi+English] - GOPISAHI

Blackhat (2015) 720p BluRay x264 Esub [Dual Audio] [Hindi+English] - GOPISAHI

Blackhat (2015) 720p BluRay x264 Esub [Dual Audio] [Hindi+English] - GOPISAHI







Format : Matroska
Format version : Version 4 / Version 2
File size : 945 MiB
Duration : 2 h 13 min
Overall bit rate : 989 kb/s
Movie name : Blackhat 2015

Video
Format : AVC
Codec ID : V_MPEG4/ISO/AVC
Duration : 2 h 13 min
Bit rate : 821 kb/s
Width : 1 280 pixels
Height : 536 pixels
Display aspect ratio : 2.40:1
Frame rate mode : Constant
Frame rate : 23.976 (24000/1001) FPS
Original frame rate : 23.976 (23976/1000) FPS
Stream size : 784 MiB (83%)
Writing library : x264 core 123 r2189 35cf912

Audio #1
Format : AAC
Duration : 2 h 13 min
Bit rate : 81.1 kb/s
Channel(s) : 6 channels
Channel positions : Front: L C R, Side: L R, LFE
Sampling rate : 44.1 kHz
Frame rate : 43.066 FPS (1024 SPF)
Stream size : 77.4 MiB (8%)
Language : English

Audio #2
Format : AAC
Duration : 2 h 13 min
Bit rate : 84.2 kb/s
Channel(s) : 6 channels
Channel positions : Front: L C R, Side: L R, LFE
Sampling rate : 44.1 kHz
Frame rate : 43.066 FPS (1024 SPF)
Stream size : 80.4 MiB (9%)
Language : Hindi

Text
Language : English 




Blackhat (2015) 720p BluRay x264 Esub [Dual Audio] [Hindi+English] - GOPISAHI
Blackhat (2015) 720p BluRay x264 Esub [Dual Audio] [Hindi+English] - GOPISAHI
Blackhat (2015) 720p BluRay x264 Esub [Dual Audio] [Hindi+English] - GOPISAHI

SINGLE DIRECT FAST LINKS

http://www.heroupload.com/dc648cfab2c7d9e4/Blackhat_2015_720p_Esub_BluRay_Dual_Audio_English_Hindi_GOPISAHI.mkv


Tags: Blackhat

Comments:

Dear visitor, you went to the site as unregistered user
We encourage you to create an account or enter the site under your name

Add comment

Name:*
E-Mail:*
Text:
Bold Italic Underline Strike | Align left Center Align right | Insert smilies Insert link URLInsert protected URL Select color | Add Hidden Text Insert Quote Convert selected text from selection to Cyrillic (Russian) alphabet Insert spoiler
Enter the code: *

Create an account

Advertising