» » The International (2009) 720p BluRay x264 Esub [Dual Audio][Hindi+English] - GOPISAHI

The International (2009) 720p BluRay x264 Esub [Dual Audio][Hindi+English] - GOPISAHI

The International (2009) 720p BluRay x264 Esub [Dual Audio][Hindi+English] - GOPISAHI






Format : Matroska
Format version : Version 4 / Version 2
File size : 932 MiB
Duration : 1 h 58 min
Overall bit rate : 1 104 kb/s
Movie name : The International 2009 GOPISAHI


Video
Format : AVC
Codec ID : V_MPEG4/ISO/AVC
Duration : 1 h 58 min
Bit rate : 941 kb/s
Width : 1 280 pixels
Height : 536 pixels
Display aspect ratio : 2.40:1
Frame rate mode : Constant
Frame rate : 23.976 (24000/1001) FPS
Stream size : 794 MiB (85%)
Writing library : x264

Audio #1
Format : AAC
Duration : 1 h 52 min
Bit rate : 86.5 kb/s
Channel(s) : 6 channels
Channel positions : Front: L C R, Side: L R, LFE
Sampling rate : 44.1 kHz
Frame rate : 43.066 FPS (1024 SPF)
Stream size : 69.6 MiB (7%)
Language : Hindi

Audio #2
Format : AAC
Duration : 1 h 58 min
Bit rate : 78.2 kb/s
Channel(s) : 6 channels
Channel positions : Front: L C R, Side: L R, LFE
Sampling rate : 44.1 kHz
Frame rate : 43.066 FPS (1024 SPF)
Stream size : 66.0 MiB (7%)
Language : English

Text
Language : English 



The International (2009) 720p BluRay x264 Esub [Dual Audio][Hindi+English] - GOPISAHI
The International (2009) 720p BluRay x264 Esub [Dual Audio][Hindi+English] - GOPISAHI
The International (2009) 720p BluRay x264 Esub [Dual Audio][Hindi+English] - GOPISAHI

SINGLE DIRECT FAST LINKS


http://www.heroupload.com/24bcd6beb430de8b/The_International_2009_720p_Esub_BluRay_Dual_Audio_English_Hindi_GOPISAHI.mkv




Tags: The

Comments:

Dear visitor, you went to the site as unregistered user
We encourage you to create an account or enter the site under your name

Add comment

Name:*
E-Mail:*
Text:
Bold Italic Underline Strike | Align left Center Align right | Insert smilies Insert link URLInsert protected URL Select color | Add Hidden Text Insert Quote Convert selected text from selection to Cyrillic (Russian) alphabet Insert spoiler
Enter the code: *

Create an account

Advertising