» » The Rite (2011) 720p BluRay x264 Esub [Dual Audio] [Hindi+English] - GOPISAHI

The Rite (2011) 720p BluRay x264 Esub [Dual Audio] [Hindi+English] - GOPISAHI

The Rite (2011) 720p BluRay x264 Esub [Dual Audio] [Hindi+English] - GOPISAHI





Format : Matroska
Format version : Version 4 / Version 2
File size : 728 MiB
Duration : 1 h 53 min
Overall bit rate : 895 kb/s
Movie name : The Rite 2011 GOPISAHI

Video
Format : AVC
Codec ID : V_MPEG4/ISO/AVC
Duration : 1 h 53 min
Bit rate : 767 kb/s
Width : 1 280 pixels
Height : 536 pixels
Display aspect ratio : 2.40:1
Frame rate mode : Constant
Frame rate : 23.976 (24000/1001) FPS
Stream size : 624 MiB (86%)
Writing library : x264

Audio #1
Format : AAC
Duration : 1 h 49 min
Bit rate : 48.0 kb/s
Channel(s) : 6 channels
Channel positions : Front: L C R, Side: L R, LFE
Sampling rate : 44.1 kHz
Frame rate : 43.066 FPS (1024 SPF)
Stream size : 37.2 MiB (5%)
Language : Hindi

Audio #2
Format : AAC
Duration : 1 h 53 min
Bit rate : 79.4 kb/s
Channel(s) : 6 channels
Channel positions : Front: L C R, Side: L R, LFE
Sampling rate : 44.1 kHz
Frame rate : 43.066 FPS (1024 SPF)
Stream size : 64.6 MiB (9%)
Language : English

Text
Language : English 



The Rite (2011) 720p BluRay x264 Esub [Dual Audio] [Hindi+English] - GOPISAHI
The Rite (2011) 720p BluRay x264 Esub [Dual Audio] [Hindi+English] - GOPISAHI
The Rite (2011) 720p BluRay x264 Esub [Dual Audio] [Hindi+English] - GOPISAHI


SINGLE DIRECT FAST LINKS


http://www.heroupload.com/450a01f66baecde1/The_Rite_2011_720p_Esub_BluRay_Dual_Audio_English_Hindi_GOPISAHI.mkv



Tags: The

Comments:

Dear visitor, you went to the site as unregistered user
We encourage you to create an account or enter the site under your name

Add comment

Name:*
E-Mail:*
Text:
Bold Italic Underline Strike | Align left Center Align right | Insert smilies Insert link URLInsert protected URL Select color | Add Hidden Text Insert Quote Convert selected text from selection to Cyrillic (Russian) alphabet Insert spoiler
Enter the code: *

Create an account

Advertising